<?xml version="1.0" standalone="no"?>
<!DOCTYPE svg PUBLIC "-//W3C//DTD SVG 1.1//EN" "http://www.w3.org/Graphics/SVG/1.1/DTD/svg11.dtd" >
<svg xmlns="http://www.w3.org/2000/svg" xmlns:xlink="http://www.w3.org/1999/xlink" version="1.1">
<metadata>
Created by FontForge 20201107 at Wed Aug  4 12:37:03 2021
 By Robert Madole
Copyright (c) Font Awesome
</metadata>
<!-- Font Awesome Pro 5.15.4 by @fontawesome - https://fontawesome.com License - https://fontawesome.com/license (Commercial License) --><defs>
<font id="FontAwesome5Pro-Regular" horiz-adv-x="512" >
  <font-face 
    font-family="Font Awesome 5 Pro Regular"
    font-weight="400"
    font-stretch="normal"
    units-per-em="512"
    panose-1="2 0 5 3 0 0 0 0 0 0"
    ascent="448"
    descent="-64"
    bbox="-0.0660784 -64.2754 640.004 448.156"
    underline-thickness="25"
    underline-position="-50"
    unicode-range="U+0020-F8FF"
  />
    <missing-glyph />
    <glyph glyph-name="th" unicode="&#xf00a;" 
d="M464 416c26.5 0 48 -21.5 48 -48v-352c0 -26.5 -21.5 -48 -48 -48h-416c-26.5 0 -48 21.5 -48 48v352c0 26.5 21.5 48 48 48h416zM197.3 376v-96h117.3v96h-117.3zM197.3 240v-96h117.3v96h-117.3zM157.3 8v96h-117.3v-84c0 -6.59961 5.40039 -12 12 -12h105.3z
M157.3 144v96h-117.3v-96h117.3zM157.3 280v96h-105.3c-6.59961 0 -12 -5.40039 -12 -12v-84h117.3zM314.7 8h-0.100586v96h-117.3v-96h117.4zM472 8v96h-117.3v-96h117.3zM472 144v96h-117.3v-96h117.3zM472 280v96h-117.3v-96h117.3z" />
    <glyph glyph-name="home" unicode="&#xf015;" horiz-adv-x="576" 
d="M570.24 200.59c3.53906 -2.93555 5.78027 -7.37109 5.78027 -12.3242c0 -3.90625 -1.40234 -7.48633 -3.73047 -10.2656l-10.2305 -12.29c-2.93555 -3.50488 -7.34961 -5.72168 -12.2754 -5.72168c-3.90039 0 -7.47656 1.39844 -10.2539 3.72168l-27.5303 22.6201
v-186.57c-0.169922 -17.5312 -14.4375 -31.7227 -32 -31.7598h-128c-17.6387 0.0498047 -31.9502 14.3613 -32 32v104h-64v-104c-0.0498047 -17.6387 -14.3613 -31.9502 -32 -32h-128c-17.6387 0.0498047 -31.9502 14.3613 -32 32v186.31l-27.4697 -22.5596
c-2.77832 -2.32324 -6.35938 -3.73535 -10.2598 -3.73535c-4.92578 0 -9.33496 2.23047 -12.2705 5.73535l-10.2402 12.2998c-2.3252 2.77832 -3.74023 6.3623 -3.74023 10.2656c0 4.92773 2.23242 9.33887 5.74023 12.2744l246.37 202.41
c9.71875 8.0918 22.2822 12.9609 35.9043 12.9609c13.623 0 26.1172 -4.86914 35.8359 -12.9609l140.18 -115.1v56.2197c0.0654297 4.34277 3.59863 7.85352 7.9502 7.87988h32c4.41504 0 8 -3.58496 8 -8v-95.5195zM463.85 16l0.150391 209.79l-176 144.56l-176 -144.619
v-209.73h96v104c0.0498047 17.6387 14.3613 31.9502 32 32h96c17.6387 -0.0498047 31.9502 -14.3613 32 -32v-104h95.8496z" />
    <glyph glyph-name="eye" unicode="&#xf06e;" horiz-adv-x="576" 
d="M288 304c0.114258 0 0.240234 -0.0175781 0.354492 -0.0175781c61.6543 0 111.71 -50.0557 111.71 -111.71s-50.0557 -111.71 -111.71 -111.71s-111.71 50.0557 -111.71 111.71c0 10.7422 1.51953 21.1328 4.35547 30.9678
c7.95898 -4.52637 17.2129 -7.17188 27 -7.24023c30.9072 0 56 25.0928 56 56c-0.0683594 9.78711 -2.71387 19.041 -7.24023 27c9.88379 3.07617 20.3896 4.83008 31.2402 5zM572.52 206.6c2.21387 -4.37793 3.46094 -9.38965 3.46094 -14.626
c0 -5.2373 -1.24707 -10.1855 -3.46094 -14.5635c-54.1992 -105.771 -161.59 -177.41 -284.52 -177.41s-230.29 71.5898 -284.52 177.4c-2.21387 4.37793 -3.46094 9.38965 -3.46094 14.626c0 5.2373 1.24707 10.1855 3.46094 14.5635
c54.1992 105.771 161.59 177.41 284.52 177.41s230.29 -71.5898 284.52 -177.4zM288 48c98.6602 0 189.1 55 237.93 144c-48.8398 89 -139.27 144 -237.93 144s-189.09 -55 -237.93 -144c48.8398 -89 139.279 -144 237.93 -144z" />
    <glyph glyph-name="eye-slash" unicode="&#xf070;" horiz-adv-x="640" 
d="M634 -23c3.66895 -2.93262 6.00391 -7.45117 6.00391 -12.5088c0 -3.7832 -1.31543 -7.26074 -3.51367 -10.001l-10 -12.4902c-2.93359 -3.66309 -7.44824 -5.99414 -12.502 -5.99414c-3.77637 0 -7.25 1.31152 -9.98828 3.50391l-598 467.49
c-3.66895 2.93262 -6.00391 7.45117 -6.00391 12.5088c0 3.7832 1.31543 7.26074 3.51367 10.001l10 12.4902c2.93359 3.66309 7.44824 5.99414 12.502 5.99414c3.77637 0 7.25 -1.31152 9.98828 -3.50391zM296.79 301.53c7.51172 1.60254 15.2266 2.45508 23.21 2.46973
c60.4805 0 109.36 -47.9102 111.58 -107.85zM343.21 82.46c-7.51367 -1.59375 -15.2285 -2.44336 -23.21 -2.45996c-60.4697 0 -109.35 47.9102 -111.58 107.84zM320 336c-19.8799 0 -39.2803 -2.7998 -58.2197 -7.09961l-46.4102 36.29
c32.9199 11.8096 67.9297 18.8096 104.63 18.8096c122.93 0 230.29 -71.5898 284.57 -177.4c2.21289 -4.37793 3.45996 -9.38965 3.45996 -14.626c0 -5.2373 -1.24707 -10.1855 -3.45996 -14.5635c-14.1924 -27.5625 -31.9229 -52.6689 -52.9004 -75.1104l-37.7402 29.5
c17.2305 18.0527 31.9385 38.1318 44 60.2002c-48.8398 89 -139.279 144 -237.93 144zM320 48c19.8896 0 39.2803 2.7998 58.2197 7.08984l46.4102 -36.2803c-32.9199 -11.7598 -67.9297 -18.8096 -104.63 -18.8096c-122.92 0 -230.28 71.5898 -284.51 177.4
c-2.21387 4.37793 -3.46094 9.38965 -3.46094 14.626c0 5.2373 1.24707 10.1855 3.46094 14.5635c14.1885 27.5586 31.916 52.6621 52.8896 75.1006l37.7402 -29.5c-17.249 -18.0469 -31.9727 -38.1221 -44.0498 -60.1904c48.8496 -89 139.279 -144 237.93 -144z" />
    <glyph glyph-name="tty" unicode="&#xf1e4;" 
d="M504.702 288.726l-37.0586 -59.291c-12.3135 -19.7002 -36.9648 -27.752 -58.5293 -19.125l-74.4199 29.7695c-19.8555 7.94336 -32.0625 28.0615 -29.9355 49.3408l2.60645 26.0732c-36.5703 9.11816 -67.3613 8.82031 -102.729 0l2.60742 -26.0723
c2.12793 -21.2803 -10.0791 -41.4014 -29.9365 -49.3438l-74.4219 -29.7686c-21.5791 -8.63086 -46.2246 -0.55957 -58.5293 19.127l-37.0586 59.292c-11.876 19.0029 -9.02441 43.6934 6.86914 59.4883c133.558 132.723 349.459 133.369 483.668 -0.000976562
c15.8936 -15.7949 18.7451 -40.4873 6.86816 -59.4893zM464.001 314.167c-115.216 114.495 -300.899 114.381 -416 0.000976562l37.0586 -59.292l74.4229 29.7676l-6.50586 65.0449c75.7822 27.3838 130.311 27.3662 206.047 0l-6.50195 -65.0439l74.4199 -29.7686zM126 18
h-28c-6.62695 0 -12 5.37305 -12 12v28c0 6.62695 5.37305 12 12 12h28c6.62695 0 12 -5.37305 12 -12v-28c0 -6.62695 -5.37305 -12 -12 -12zM222 18h-28c-6.62695 0 -12 5.37305 -12 12v28c0 6.62695 5.37305 12 12 12h28c6.62695 0 12 -5.37305 12 -12v-28
c0 -6.62695 -5.37305 -12 -12 -12zM318 18h-28c-6.62695 0 -12 5.37305 -12 12v28c0 6.62695 5.37305 12 12 12h28c6.62695 0 12 -5.37305 12 -12v-28c0 -6.62695 -5.37305 -12 -12 -12zM414 18h-28c-6.62695 0 -12 5.37305 -12 12v28c0 6.62695 5.37305 12 12 12h28
c6.62695 0 12 -5.37305 12 -12v-28c0 -6.62695 -5.37305 -12 -12 -12zM78 -64h-28c-6.62695 0 -12 5.37305 -12 12v28c0 6.62695 5.37305 12 12 12h28c6.62695 0 12 -5.37305 12 -12v-28c0 -6.62695 -5.37305 -12 -12 -12zM462 -64h-28c-6.62695 0 -12 5.37305 -12 12v28
c0 6.62695 5.37305 12 12 12h28c6.62695 0 12 -5.37305 12 -12v-28c0 -6.62695 -5.37305 -12 -12 -12zM78 100h-28c-6.62695 0 -12 5.37305 -12 12v28c0 6.62695 5.37305 12 12 12h28c6.62695 0 12 -5.37305 12 -12v-28c0 -6.62695 -5.37305 -12 -12 -12zM174 100h-28
c-6.62695 0 -12 5.37305 -12 12v28c0 6.62695 5.37305 12 12 12h28c6.62695 0 12 -5.37305 12 -12v-28c0 -6.62695 -5.37305 -12 -12 -12zM270 100h-28c-6.62695 0 -12 5.37305 -12 12v28c0 6.62695 5.37305 12 12 12h28c6.62695 0 12 -5.37305 12 -12v-28
c0 -6.62695 -5.37305 -12 -12 -12zM366 100h-28c-6.62695 0 -12 5.37305 -12 12v28c0 6.62695 5.37305 12 12 12h28c6.62695 0 12 -5.37305 12 -12v-28c0 -6.62695 -5.37305 -12 -12 -12zM462 100h-28c-6.62695 0 -12 5.37305 -12 12v28c0 6.62695 5.37305 12 12 12h28
c6.62695 0 12 -5.37305 12 -12v-28c0 -6.62695 -5.37305 -12 -12 -12zM364 -58h-216c-6.62695 0 -12 5.37305 -12 12v16c0 6.62695 5.37305 12 12 12h216c6.62695 0 12 -5.37305 12 -12v-16c0 -6.62695 -5.37305 -12 -12 -12z" />
    <glyph glyph-name="phone-volume" unicode="&#xf2a0;" horiz-adv-x="448" 
d="M226.615 35.4238c8.4375 -21.0928 0.579102 -45.1426 -18.6865 -57.1836l-56.1738 -35.1074c-18.1035 -11.3154 -42.2012 -9.20801 -58.0166 6.60645c-125.348 125.348 -124.622 327.9 0 452.522c15.8164 15.8164 39.9189 17.917 58.0156 6.60645l56.1748 -35.1074
c19.2656 -12.041 27.124 -36.0898 18.6865 -57.1836l-28.0869 -70.2178c-7.92676 -19.8135 -27.667 -31.3018 -48.208 -29.2461l-21.9707 2.19629c-6.43945 -28.7451 -6.24805 -58.7061 0.00195312 -86.6172l21.9707 2.19629
c20.5762 2.05762 40.293 -9.46191 48.207 -29.2471zM127.059 -15.7012l54.6475 34.1553l-27.4365 68.5908l-59.9463 -5.99512c-25.2412 69.8516 -25.2207 120.106 0 189.901l59.9453 -5.99316l27.4375 68.5889l-54.6465 34.1562
c-105.543 -106.208 -105.398 -277.342 -0.000976562 -383.404zM282.787 346.787c5.19043 5.19043 13.751 4.52051 18.1484 -1.35938c11.9775 -16.0137 19.0645 -35.8926 19.0645 -57.4277s-7.08691 -41.4141 -19.0654 -57.4268
c-4.39746 -5.87891 -12.958 -6.5498 -18.1484 -1.35938l-11.4766 11.4766c-4.11523 4.11523 -4.66992 10.584 -1.34082 15.3594c6.30273 9.02441 10.0312 20.0518 10.0312 31.8828v0.0673828c0 0.0214844 -0.03125 0.0957031 -0.03125 0.118164
c0 11.832 -3.69727 22.8076 -9.99902 31.833c-3.33008 4.77539 -2.77539 11.2432 1.34082 15.3594zM373.662 437.662c4.87109 4.87109 12.8428 4.6582 17.4336 -0.479492c35.3926 -39.6074 56.9043 -91.8809 56.9043 -149.183s-21.5117 -109.575 -56.9043 -149.183
c-4.59082 -5.1377 -12.5625 -5.35059 -17.4336 -0.479492l-11.3232 11.3232c-4.46094 4.46094 -4.74707 11.6504 -0.558594 16.3701c29.8857 33.6768 46.2197 76.5635 46.2197 121.969s-16.334 88.292 -46.2197 121.969c-4.1875 4.71973 -3.90234 11.9092 0.558594 16.3701z
M328.307 392.307c4.93555 4.93457 13.0596 4.66504 17.582 -0.649414c23.7666 -27.9258 38.1113 -64.1172 38.1113 -103.657s-14.3447 -75.7314 -38.1113 -103.658c-4.52246 -5.31445 -12.6465 -5.58496 -17.582 -0.649414l-11.3545 11.3545
c-4.40625 4.40625 -4.67871 11.4297 -0.685547 16.2129c17.96 21.5117 27.7334 48.3779 27.7334 76.7402s-9.77344 55.2285 -27.7334 76.7393c-3.99316 4.78418 -3.7207 11.8066 0.685547 16.2129z" />
    <glyph glyph-name="battery-slash" unicode="&#xf377;" horiz-adv-x="640" 
d="M36 444.49l598 -467.49c3.66895 -2.93262 6.00391 -7.45117 6.00391 -12.5088c0 -3.7832 -1.31543 -7.26074 -3.51367 -10.001l-10 -12.4902c-2.93359 -3.66309 -7.44824 -5.99414 -12.502 -5.99414c-3.77637 0 -7.25 1.31152 -9.98828 3.50391l-598 467.49
c-3.66895 2.93262 -6.00391 7.45117 -6.00391 12.5088c0 3.7832 1.31543 7.26074 3.51367 10.001l10 12.4902c2.93359 3.66309 7.44824 5.99414 12.502 5.99414c3.77637 0 7.25 -1.31152 9.98828 -3.50391zM616 288c13.2461 0 24 -10.7539 24 -24v-144
c0 -13.2461 -10.7539 -24 -24 -24h-8v-16c0 -0.0234375 -0.0224609 -0.0791016 -0.0224609 -0.101562c0 -6.62695 -1.35254 -12.9404 -3.79785 -18.6787l-44.1797 34.5303v48.25h32v96h-32v64h-266.37l-61.3896 48h327.76c26.4922 0 48 -21.5078 48 -48v-16h8zM48 80h298.37
l61.3896 -48h-359.76c-26.4922 0 -48 21.5078 -48 48v224c0.0146484 13.7705 5.85742 26.1826 15.21 34.8896l32.79 -25.6299v-233.26z" />
    <glyph glyph-name="diagnoses" unicode="&#xf470;" horiz-adv-x="640" 
d="M632 -16c4.40039 0 8 -3.59961 8 -8v-32c0 -4.40039 -3.59961 -8 -8 -8h-624c-4.40039 0 -8 3.59961 -8 8v32c0 4.40039 3.59961 8 8 8h624zM256 144c0 8.7998 7.2002 16 16 16s16 -7.2002 16 -16s-7.2002 -16 -16 -16s-16 7.2002 -16 16zM496 192
c-8.7998 0 -16 7.2002 -16 16s7.2002 16 16 16s16 -7.2002 16 -16s-7.2002 -16 -16 -16zM96 176c-8.7998 0 -16 7.2002 -16 16s7.2002 16 16 16s16 -7.2002 16 -16s-7.2002 -16 -16 -16zM584.6 119.6c5.10059 7.60059 3 17.8008 -5 22.5
c-11.6992 7 -30.6992 17.5 -53.8994 28.6006c4.09961 3.39941 21.5996 18.3994 17.3994 44.8994c25.9004 -12.1992 47.4004 -24 61.2002 -32.2998c14.9004 -8.89941 25.6006 -23.7002 29.4004 -40.5996c3.89941 -17 0.5 -35.1006 -9.2002 -49.7002l-17.7998 -26.7002
c-11.9004 -17.8994 -31.7998 -28.5996 -53.2002 -28.5996c-11.4004 0 -22.5996 3.09961 -32.5 8.89941c-10.2998 6.10059 -30.7002 17.5 -57 29.2002v-43.7998h-48v112.6c81.9004 -24 127.7 -58.8994 137.5 -58.8994c5.2002 0 10.2002 2.59961 13.2998 7.2002z
M33.2002 66.2998l-17.9004 26.7002c-9.7002 14.5996 -13 32.7002 -9.2002 49.7002c3.80078 16.8994 14.5 31.7002 29.4004 40.5996c3.5 2.10059 8.2002 4.7002 12.5996 7.2002c0.600586 -17.7002 10.8008 -32.9004 25.5 -40.7002
c-4.89941 -2.7998 -9.7998 -5.5 -13.3994 -7.7002c-7.7998 -4.69922 -10 -14.8994 -4.90039 -22.5l17.7998 -26.6992c3.10059 -4.7002 8.10059 -7.2002 13.3008 -7.2002c9.59961 0 56.3994 35.0996 137.5 58.8994v-112.6h-48v43.7998
c-26.3008 -11.7002 -46.7002 -23.0996 -57 -29.2002c-9.80078 -5.7998 -21.1006 -8.89941 -32.5 -8.89941c-21.4004 0 -41.3008 10.7002 -53.2002 28.5996zM143.2 183.6c2.59961 14.9004 -1.40039 32.4004 -16.7002 45.1006c32.2002 13.3994 69.5 26.0996 109.3 34.2002
c-17.0996 19.6992 -27.7998 45.0996 -27.7998 73.0996c0 61.7998 50.2002 112 112 112s112 -50.2002 111.9 -111.9c0 -28.1992 -10.8008 -53.5996 -28 -73.2998c21.8994 -4.5 43.0996 -10.2002 63 -16.7998c-4.2002 -3.2998 -21.9004 -17.7998 -18.3008 -44.4004
c-39.5996 12.8008 -83.6992 22.4004 -128.6 22.4004c-64.2998 0 -127.3 -19.5 -176.8 -40.4004zM320 400c-35.2998 0 -64 -28.7002 -64 -64s28.7002 -64 64 -64s64 28.7002 64 64s-28.7002 64 -64 64zM352 64c0 8.7998 7.2002 16 16 16s16 -7.2002 16 -16
s-7.2002 -16 -16 -16s-16 7.2002 -16 16z" />
    <glyph glyph-name="box-full" unicode="&#xf49c;" horiz-adv-x="640" 
d="M638.3 208.2c4.5 -9.2002 -0.299805 -20.2002 -10.2002 -23l-52.0996 -14.9004v-147.3c0 -14.5996 -10 -27.4004 -24.2002 -31l-216.399 -54.0996c-6 -1.5 -17.4004 -3.40039 -31 0l-216.2 54.0996c-14.2002 3.5 -24.2002 16.2998 -24.2002 31v147.3l-52.2002 14.9004
c-9.7998 2.7998 -14.7002 13.7998 -10.0996 23l51.3994 102.8c4.10059 8 12.1006 9.5 16.7002 8.90039l27.4004 -3.5c6.39941 73.5996 67.5 131.6 142.8 131.6c68.2002 0 125 -47.5 139.9 -111.2l30.8994 84.9004c7.60059 20.7002 30.6006 31.5 51.2998 23.8994
l55.5 -20.2998c10.1006 -3.7002 18.1006 -11 22.6006 -20.7002c4.5 -9.69922 5 -20.5996 1.2998 -30.5996l-22.0996 -60.5996l50.6992 6.5c4.60059 0.599609 12.7002 -0.800781 16.7002 -8.90039zM453.2 397.7l-35.5 -97.2002l48.2002 6.09961l27.7998 76.4004z
M61.7002 220.8l137.899 -39.3994l41.2002 68.2998l-154.8 19.7002zM296 -10.5v258.7l-67.7002 -112.2c-3.2998 -5.5 -10.5 -9.59961 -18.5 -7.2998l-97.7998 27.8994v-121.1zM334.6 289.9c0.700195 4.59961 1.40039 9.2998 1.40039 14.0996c0 52.9004 -43.0996 96 -96 96
c-50.7998 0 -92 -39.7002 -95.4004 -89.7002l175.4 -22.2998zM528 35.5v121l-97.7998 -27.9004c-7.90039 -2.2998 -15.2002 1.80078 -18.5 7.30078l-67.7002 112.3v-258.7zM440.3 181.4l138 39.3994l-24.2998 48.6006l-154.9 -19.7002z" />
    <glyph glyph-name="box-open" unicode="&#xf49e;" horiz-adv-x="640" 
d="M638.3 304.2c4.5 -9.2002 -0.299805 -20.2002 -10.2002 -23l-52.0996 -14.9004v-211.3c0 -14.5996 -10 -27.4004 -24.2002 -31l-216.399 -54.0996c-13.6006 -3.40039 -25 -1.5 -31 0l-216.2 54.0996c-14.2002 3.5 -24.2002 16.2998 -24.2002 31v211.3l-52.2002 14.9004
c-9.7998 2.7998 -14.7002 13.7998 -10.0996 23l51.5 102.8c4 8 12 9.5 16.5996 8.90039l250.2 -31.9004l250.1 31.9004c4.60059 0.599609 12.7002 -0.900391 16.7002 -8.90039zM86 365.4l-24.4004 -48.6006l138 -39.3994l41.2002 68.2998zM112 252.6v-185.1l184 -46v322.7
l-67.7002 -112.2c-3.2998 -5.5 -10.5 -9.59961 -18.5 -7.2998zM528 67.5v185l-97.7998 -27.9004c-7.90039 -2.2998 -15.2002 1.80078 -18.5 7.30078l-67.7002 112.3v-322.7zM440.3 277.4l138 39.3994l-24.2998 48.6006l-154.9 -19.7002z" />
    <glyph glyph-name="home-heart" unicode="&#xf4c9;" horiz-adv-x="576" 
d="M231.3 256.2c22.2002 0 43.2998 -10 56.5 -23.2998c13.1006 13.2998 34.2002 23.2998 56.4004 23.2998c15.2002 0 31 -4.7998 44.8994 -16.5c37.7002 -31.7002 32.1006 -83.2998 5.30078 -110.601l-87.8008 -89.3994c-7.39941 -7.5 -25 -12.9004 -37.6992 0
l-87.8008 89.3994c-26.7998 27.3008 -32.3994 78.9004 5.30078 110.601c13.8994 11.7002 29.5996 16.5 44.8994 16.5zM358.1 203c-13.6992 11.5 -31.3994 1.09961 -36 -3.7998l-34.2998 -34.9004l-34.2998 34.9004c-4.7998 4.89941 -22.5 15.2998 -36.0996 3.7998
c-18.4004 -15.4004 -6 -36.0996 -2 -40.2002l72.2998 -73.5996l72.3994 73.5996c3.90039 4.10059 16.3008 24.7998 -2 40.2002zM573 224c3.40039 -2.7998 4 -7.7998 1.40039 -11.2002l-20.3008 -24.7998c-2.7998 -3.40039 -7.89941 -3.90039 -11.2998 -1.09961
l-30.7998 27.2998v-262.2c0 -8.7998 -7.2002 -16 -16 -16h-416.2c-8.7998 0 -16.0996 7.2002 -16.0996 16v262.2l-30.2998 -27.7002c-3.5 -2.7998 -8.5 -2.2998 -11.3008 1.09961l-20.2998 24.8008c-2.7998 3.5 -2.2998 8.5 1.10059 11.2998l259.6 215.2
c14.7002 12.0996 36 12.0996 50.7002 0l150.7 -123.4v60.5c0 4.40039 3.59961 8 8 8h32c4.39941 0 8 -3.59961 8 -8v-99.7998zM463.8 -16v269.5l-171 140c-2.89941 2.40039 -7.2002 2.40039 -10.0996 0l-171 -140v-269.5h352.1z" />
    <glyph glyph-name="drumstick" unicode="&#xf6d6;" 
d="M471.06 390.35c31.6904 -35.6895 45.7207 -81.9492 39.5 -130.27c-6.86914 -53.6396 -37.3398 -102.12 -83.5596 -133c-31.25 -20.9102 -65.2803 -31.0801 -104 -31.0801h-61.1602l-43.7402 -43.7598c-1.71973 -1.75 -1.15918 -5.25 -0.15918 -7.75
c3.625 -9.07422 5.64062 -19.0303 5.64062 -29.3916c0 -43.7061 -35.4834 -79.1904 -79.1895 -79.1904c-21.877 0 -41.6934 8.89062 -56.0312 23.252c-11.4502 11.4912 -19.2607 26.6924 -21.5703 43.5498c-16.8662 2.3125 -32.0752 10.1309 -43.5703 21.5898
c-14.3125 14.3311 -23.1113 34.0928 -23.1113 55.9268c0 43.7061 35.4834 79.1904 79.1895 79.1904c10.3301 0 20.2012 -1.98242 29.252 -5.58691c2 -0.830078 5.82031 -1.70996 7.75 0.169922l43.7002 43.7695v60.4209c0 70.3496 35.3398 113.6 61.9297 140.02
c31.1113 30.79 73.833 49.7959 121.02 49.7959c1.72949 0 3.45312 -0.0253906 5.1709 -0.0761719c48.917 -1.32422 92.75 -23.2861 122.939 -57.5801zM173.37 26.6602c-8.58984 21.4697 -4.45996 44.2803 10.8398 59.5195l20.4902 20.5
c-14.3926 7.80762 -26.1396 19.5107 -34 33.8701l-20.4307 -20.4502c-9.53223 -9.38281 -22.6143 -15.1699 -37.0342 -15.1699h-0.235352c-7.93848 0.0244141 -15.5596 1.6084 -22.5 4.41992c-3.51855 1.38086 -7.36426 2.15137 -11.3701 2.15137
c-17.1807 0 -31.1299 -13.9492 -31.1299 -31.1299v-0.0214844c0 -12.04 8 -27.6299 25.5098 -30.1094l35.8105 -5.0498l5 -35.8008c2.46973 -17.5693 18.1094 -25.3896 30.1094 -25.3896c0.0390625 0 0.0615234 0.0185547 0.100586 0.0185547
c17.1475 0 31.0693 13.9219 31.0693 31.0693c0 4.08984 -0.791016 7.99512 -2.22949 11.5723zM400.31 167c49.1807 32.8301 96.8008 121.66 34.8701 191.49c-39.54 44.5195 -121.71 63.0898 -179.399 5.7002c-33.5 -33.3008 -47.7803 -65 -47.7803 -106v-77.3906
c0.109375 -20.3271 16.6436 -36.7998 36.9961 -36.7998h0.164062h77.8096c28.9004 0 54.21 7.53027 77.3398 23z" />
    <glyph glyph-name="drumstick-bite" unicode="&#xf6d7;" 
d="M471.15 390.35c26.3496 -29.6396 40.4697 -66.5 40.8496 -106.59c0.000976562 -0.0820312 0.00683594 -0.157227 0.00683594 -0.240234c0 -13.2461 -10.7539 -24 -24 -24c-2.21094 0 -4.35254 0.299805 -6.38672 0.860352
c-30.2197 8.35059 -60.7002 0.770508 -81.7002 -20.2295c-26.2295 -26.25 -31.0098 -68.2402 -11.6299 -102.15c2.00098 -3.50293 3.15332 -7.58105 3.15332 -11.9014c0 -11.0605 -7.49707 -20.3828 -17.6836 -23.1582c-16.167 -4.50586 -33.165 -6.94043 -50.7598 -6.94043
h-61.1104l-43.79 -43.7598c-1.71973 -1.75 -1.15918 -5.25 -0.15918 -7.75c3.625 -9.07422 5.64062 -19.0303 5.64062 -29.3916c0 -43.7061 -35.4834 -79.1904 -79.1895 -79.1904c-21.877 0 -41.6934 8.89062 -56.0312 23.252
c-11.4502 11.4912 -19.2607 26.6924 -21.5703 43.5498c-16.8662 2.3125 -32.0752 10.1309 -43.5703 21.5898c-14.3125 14.3311 -23.1113 34.0928 -23.1113 55.9268c0 43.7061 35.4834 79.1904 79.1895 79.1904c10.3301 0 20.2012 -1.98242 29.252 -5.58691
c2 -0.830078 5.82031 -1.70996 7.75 0.169922l43.7002 43.7803v60.4199c0 70.3398 35.3799 113.59 62 140.01c31.1172 30.79 73.8447 49.7959 121.035 49.7959c1.72461 0 3.44238 -0.0253906 5.15527 -0.0761719c48.9219 -1.3291 92.7598 -23.2891 122.96 -57.5801z
M173.37 26.6602c-8.58008 21.4697 -4.4502 44.2803 10.7803 59.5195c1.84961 1.82031 -0.620117 -0.629883 20.5898 20.5205c-14.3906 7.81055 -26.1357 19.5127 -34 33.8701l-20.46 -20.4707c-9.52832 -9.38281 -22.6064 -15.1699 -37.0215 -15.1699h-0.258789
c-7.93848 0.0244141 -15.5596 1.6084 -22.5 4.41992c-3.51855 1.38086 -7.36426 2.15137 -11.3701 2.15137c-17.1807 0 -31.1299 -13.9492 -31.1299 -31.1299v-0.0214844c0 -12.0498 8 -27.6299 25.5098 -30.1094l35.8105 -5.0498l5 -35.8105
c2.46973 -17.5596 18.1094 -25.3799 30.1094 -25.3799c0.0390625 0 0.0615234 0.0185547 0.100586 0.0185547c17.1475 0 31.0693 13.9219 31.0693 31.0693c0 4.08984 -0.791016 7.99512 -2.22949 11.5723zM366 274.08c23.2832 23.2139 55.3604 37.5566 90.8027 37.5566
c1.16992 0 2.33496 -0.015625 3.49707 -0.046875c-4.55176 17.6494 -13.2852 33.7197 -25.0693 46.9102c-39.54 44.5098 -121.74 63.0898 -179.44 5.7002c-33.5 -33.2998 -47.79 -65 -47.79 -106v-77.4004c0.115234 -20.3223 16.6455 -36.79 36.9951 -36.79h0.205078
h77.8594c3.62012 0 7.19043 0.140625 10.7803 0.410156c-13.2197 45.8398 -1.68945 95.7998 32.1602 129.66z" />
    <glyph glyph-name="pie" unicode="&#xf705;" horiz-adv-x="576" 
d="M544 208c17.6611 0 32 -14.3389 32 -32s-14.3389 -32 -32 -32c-32 0 -49.9404 13.4805 -61.7998 22.4199c-9.04004 6.77051 -12.7402 9.58008 -23.3799 9.58008c-10.6406 0 -14.3906 -2.80957 -23.4404 -9.58984c-11.8896 -8.92969 -29.8398 -22.4102 -61.8398 -22.4102
s-49.9697 13.4902 -61.8604 22.4102c-9.0498 6.78027 -12.79 9.58984 -23.4395 9.58984c-10.6504 0 -14.4502 -2.80957 -23.4502 -9.58984c-11.8799 -8.92969 -29.8604 -22.4102 -61.8799 -22.4102c-32.0205 0 -50 13.4697 -61.9102 22.3896
c-9.08008 6.80078 -12.8496 9.61035 -23.5498 9.61035s-14.4502 -2.80957 -23.5303 -9.61035c-11.9199 -8.91992 -29.9199 -22.3896 -61.9199 -22.3896c-17.6611 0 -32 14.3389 -32 32s14.3389 32 32 32c6.4502 0 10.3799 1.16992 14.4502 3.4502
c34.5498 100.34 129.479 172.55 241.55 172.55s206.93 -72.1699 241.53 -172.48c4.09961 -2.31934 8.0293 -3.51953 14.4697 -3.51953zM206.31 296.84c1.07617 2.15137 1.7002 4.6084 1.7002 7.17578c0 8.83398 -7.17188 16.0059 -16.0059 16.0059
c-6.2666 0 -11.6973 -3.60938 -14.3242 -8.86133l-16 -32c-1.07617 -2.15137 -1.69141 -4.59277 -1.69141 -7.16016c0 -8.83105 7.16895 -16 16 -16h0.0117188c6.26367 0 11.6836 3.5918 14.3096 8.83984zM304 272v32c0 8.83105 -7.16895 16 -16 16s-16 -7.16895 -16 -16
v-32c0 -8.83105 7.16895 -16 16 -16s16 7.16895 16 16zM407.16 257.69c5.25098 2.625 8.83594 8.06055 8.83594 14.3262c0 2.5625 -0.603516 4.98535 -1.67578 7.13379l-16 32c-2.62598 5.25293 -8.03809 8.83301 -14.3057 8.83301
c-8.83301 0 -16.0039 -7.1709 -16.0039 -16.0039c0 -2.56543 0.604492 -4.98926 1.67969 -7.13965l16 -32c2.62598 -5.24902 8.06055 -8.83203 14.3242 -8.83203c2.56738 0 4.99414 0.605469 7.14551 1.68262zM445.4 48l28.4297 85.1396
c13.1611 -8.83203 28.3584 -15.2344 44.4697 -18.3799l-31 -92.8799c-4.2373 -12.7109 -16.2324 -21.8799 -30.3594 -21.8799h-337.87c-14.1113 0.0166016 -26.0869 9.18066 -30.3203 21.8799l-31 92.8799c16.1104 3.13672 31.3135 9.51758 44.4902 18.3203
l28.3594 -85.0801h314.801z" />
    <glyph glyph-name="turkey" unicode="&#xf725;" horiz-adv-x="640" 
d="M534 240.07c-13 6.72949 -18.8203 -0.370117 -21.6396 -2.7002c-1.84082 -1.56055 -3.30078 -3.41016 -5.07031 -5c42.7695 -53.9902 68.71 -116.97 68.71 -168.37c0 -114.88 -128.94 -128 -288 -128s-288 13.1299 -288 128s128.94 288 288 288
c42.6699 0 83 -12.7197 119.44 -33.2305c6.45801 3.93359 12.5605 8.24805 18.3994 13c9.27051 7.74023 15.9297 10.7207 12.1602 23.8301c-1.78418 6.2334 -2.75391 12.7324 -2.75391 19.5361c0 2.23047 0.102539 4.43652 0.303711 6.61426
c3.12988 37.0479 34.2256 66.251 72.0762 66.251c0.125 0 0.25 0 0.374023 -0.000976562c50.3398 0 72.5498 -44 72.8701 -71.8203c33.6133 -6.4834 59.0957 -36.0156 59.0957 -71.5098c0 -2.14941 -0.0927734 -4.27734 -0.275391 -6.37988
c-4.57031 -51.4902 -51.2207 -68.4404 -79 -65.9502c-9.49609 0.836914 -18.6084 3.56445 -26.6904 7.73047zM528 64c0 39.1396 -19.7803 88 -52.2803 131.44c-11.4277 -17.8145 -20.0391 -37.9834 -24.9395 -59.2207c-12.1299 -52.4102 -51.96 -92.3496 -101.49 -101.75
c-15.2197 -2.88965 -83.0098 -12.6602 -130.15 48.4502c-24.8994 32.2803 -33.1797 73.6299 -22.7197 113.47c23.25 88.5703 112.811 95.9805 130.92 96.8906c5.00977 0.279297 9.91992 1.29004 14.8701 2c-17.0986 5.48535 -35.3369 8.55859 -54.21 8.71973
c-130.16 0 -240 -147.42 -240 -240c0 -50.6699 39.2695 -80 240 -80s240 29.3301 240 80zM481.61 274.21c13.5801 11.2998 27.1592 16.79 41.54 16.7998c12.2793 0 22.5195 -4.0498 30.75 -7.2998c30.2695 -11.96 37.5293 13.5 38 18.8301
c0.0566406 0.688477 0.0839844 1.36914 0.0839844 2.07324c0 6.53125 -2.51758 12.4795 -6.63477 16.9268c-7.31934 8 -13.0098 8.83984 -30.6592 6c-18.3506 -2.94043 -33.0205 15.0098 -26.3506 32.3096c2.46973 6.5 4.33008 11.6504 4.46973 13.25
c1.80078 20.2705 -14.7998 26.8701 -25.1494 26.8701c-3.31055 0 -28.3906 -1.46973 -23.2002 -31.2002c5.19043 -29.7295 2.15039 -48.4492 -20.9502 -68.0693c-14.9502 -12.7705 -60.4199 -51.6104 -133.76 -55.29c-66.6201 -3.35059 -83.3496 -47.6504 -86.8896 -61.1406
c-1.86719 -6.88965 -2.83691 -14.1777 -2.83691 -21.6562c0 -18.9424 6.39258 -36.4043 17.1367 -50.3438c7.37012 -9.5498 34.29 -39.8799 83.1895 -30.6094c30.8408 5.84961 55.8408 31.5303 63.6807 65.4102c11.5801 49.8799 39.0898 95.0293 77.5801 127.14z" />
    <glyph glyph-name="ball-pile" unicode="&#xf77e;" horiz-adv-x="576" 
d="M480 128c53 0 96 -43 96 -96s-43 -96 -96 -96s-96 43 -96 96c0 27.2002 11.4004 51.7002 29.7002 69.2002c-9.40039 -3.10059 -19.2002 -5.2002 -29.7002 -5.2002s-20.2998 2.09961 -29.7002 5.2002c18.2998 -17.5 29.7002 -42 29.7002 -69.2002c0 -53 -43 -96 -96 -96
s-96 43 -96 96c0 27.2002 11.4004 51.7002 29.7002 69.2002c-9.40039 -3.10059 -19.2002 -5.2002 -29.7002 -5.2002s-20.2998 2.09961 -29.7002 5.2002c18.2998 -17.5 29.7002 -42 29.7002 -69.2002c0 -53 -43 -96 -96 -96s-96 43 -96 96s43 96 96 96
c10.5 0 20.2998 -2.09961 29.7002 -5.2002c-18.2998 17.5 -29.7002 42 -29.7002 69.2002c0 53 43 96 96 96c10.5 0 20.2998 -2.09961 29.7002 -5.2002c-18.2998 17.5 -29.7002 42 -29.7002 69.2002c0 53 43 96 96 96s96 -43 96 -96
c0 -27.2002 -11.4004 -51.7002 -29.7002 -69.2002c9.40039 3.10059 19.2998 5.2002 29.7002 5.2002c53 0 96 -43 96 -96c0 -27.2998 -11.5 -51.7002 -29.7002 -69.2002c9.40039 3.10059 19.2998 5.2002 29.7002 5.2002zM288 400c-26.5 0 -48 -21.5 -48 -48s21.5 -48 48 -48
s48 21.5 48 48s-21.5 48 -48 48zM317.7 122.8c-18.2998 17.5 -29.7002 42 -29.7002 69.2002s11.4004 51.7002 29.7002 69.2002c-9.40039 -3.10059 -19.2002 -5.2002 -29.7002 -5.2002s-20.2998 2.09961 -29.7002 5.2002c18.2998 -17.5 29.7002 -41.9004 29.7002 -69.2002
s-11.5 -51.7002 -29.7002 -69.2002c9.40039 3.10059 19.2002 5.2002 29.7002 5.2002s20.2998 -2.09961 29.7002 -5.2002zM96 -16c26.5 0 48 21.5 48 48s-21.5 48 -48 48s-48 -21.5 -48 -48s21.5 -48 48 -48zM192 144c26.5 0 48 21.5 48 48s-21.5 48 -48 48
s-48 -21.5 -48 -48s21.5 -48 48 -48zM288 -16c26.5 0 48 21.5 48 48s-21.5 48 -48 48s-48 -21.5 -48 -48s21.5 -48 48 -48zM384 144c26.5 0 48 21.5 48 48s-21.5 48 -48 48s-48 -21.5 -48 -48s21.5 -48 48 -48zM480 -16c26.5 0 48 21.5 48 48s-21.5 48 -48 48
s-48 -21.5 -48 -48s21.5 -48 48 -48z" />
    <glyph glyph-name="biohazard" unicode="&#xf780;" horiz-adv-x="576" 
d="M287.9 336c-18.5 0 -36 -3.7998 -52.5 -9.5c-13.3008 10.2998 -23.6006 24.2998 -29.5 40.7002c25.1992 10.8994 53 16.8994 82.0996 16.8994c29.2002 0 57 -6.09961 82.2002 -17c-5.90039 -16.3994 -16.2002 -30.3994 -29.5 -40.6992
c-16.6006 5.7998 -34.2002 9.59961 -52.7998 9.59961zM163.6 9.2998c-47.5 35.5 -79.1992 90.7002 -83.2998 153.5c7.2998 2.10059 14.9004 3.10059 22.5 3.10059c9.2002 0 17.9004 -1.80078 26.4004 -4.60059c4.09961 -44.2998 26 -83.2002 58.8994 -109.6
c-4.09961 -16 -12.5 -30.6006 -24.5 -42.4004zM387.8 51.9004c32.7002 26.3994 54.6006 65.0996 58.7002 109.3c8.59961 2.7998 17.4004 4.7002 26.5996 4.7002c7.5 0 15 -1 22.2002 -3c-3.89941 -62.8008 -35.5996 -118 -83 -153.5c-12 11.7998 -20.3994 26.5 -24.5 42.5z
M501.3 256.9c34.6006 -20.4004 61 -53.3008 74.1006 -92.4004c1.2998 -3.7002 -0.200195 -7.7998 -3.5 -9.7998c-3.30078 -2 -7.5 -1.2998 -10 1.59961c-9.40039 10.7998 -19 19 -29.2002 25.1006c-57.2998 33.8994 -130.8 13.6992 -163.9 -45
c-33.0996 -58.7002 -13.3994 -134 43.9004 -167.9c10.2002 -6.09961 21.8994 -10.5 35.7998 -13.4004c3.7998 -0.799805 6.40039 -4.19922 6.40039 -8.09961c-0.100586 -4 -2.7002 -7.2998 -6.5 -8c-39.7002 -7.7998 -80.6006 -0.799805 -115.2 19.7002
c-18 10.5996 -32.9004 24.5 -45.2998 40.0996c-12.4004 -15.5996 -27.3008 -29.5 -45.3008 -40.0996c-34.5996 -20.5 -75.5 -27.5 -115.199 -19.7002c-3.80078 0.700195 -6.40039 4 -6.5 8c0 3.90039 2.69922 7.2998 6.39941 8.09961
c13.7998 3 25.6006 7.30078 35.7998 13.4004c57.3008 33.9004 77 109.2 43.9004 167.9c-33.0996 58.6992 -106.6 78.8994 -163.9 45c-10.1992 -6 -19.7998 -14.3008 -29.1992 -25.1006c-2.5 -2.89941 -6.7002 -3.59961 -10 -1.59961
c-3.30078 2.09961 -4.80078 6.09961 -3.5 9.7998c13.2998 39.0996 39.6992 71.9004 74.2998 92.4004c17.5996 10.3994 36.3994 16.5996 55.2998 19.8994c-6.09961 17.7002 -10 36.4004 -10 56.2002c0 41 14.5996 80.7998 41 112.2c2.5 3 6.59961 3.7002 10 1.7998
c3.2998 -1.90039 4.7998 -6 3.59961 -9.7002c-4.39941 -13.7998 -6.59961 -26.3994 -6.59961 -38.5c0 -67.7998 53.7998 -122.899 120 -122.899s120 55.0996 120 122.899c0 12.2002 -2.09961 24.7002 -6.59961 38.5c-1.2002 3.7002 0.299805 7.7998 3.59961 9.7002
c3.40039 1.90039 7.5 1.2002 10 -1.7998c26.5 -31.4004 41 -71.2002 41 -112.2c0 -19.7998 -4 -38.5 -10 -56.2002c19 -3.2998 37.7002 -9.5 55.2998 -19.8994zM287.9 127.9c26.5 0 48 21.5 48 48s-21.5 48 -48 48s-48 -21.5 -48 -48s21.5 -48 48 -48z" />
    <glyph glyph-name="bacon" unicode="&#xf7e5;" horiz-adv-x="576" 
d="M566.93 343.6c12.7002 -12.5996 12.0703 -33.6494 -1.81934 -45.0498c-36.3701 -30.0098 -66.2402 -41.1494 -91.1104 -50.4102c-9.2002 -3.43945 -69 -19.3193 -98.7305 -98.1299c-8.93945 -23.5898 -46.7393 -134.689 -188.939 -187.689
c-15.8496 -5.90039 -27.3398 -10.1807 -40.9404 -20.2402c-5.15527 -3.81055 -11.5576 -6.08008 -18.4551 -6.08008h-0.0146484c-0.0273438 0 -0.0585938 -0.00390625 -0.0869141 -0.00390625c-8.42773 0 -16.0684 3.40137 -21.623 8.9043l-96.1396 95.4893
c-12.7002 12.6104 -12.0703 33.6104 1.79004 45.0605c36.3398 29.9795 66.21 41.0996 91.0693 50.3594c9.16992 3.41016 68.9707 19.2607 98.7207 98.0801c8.60938 22.8203 46.3496 134.591 188.979 187.73c15.8506 5.91016 27.3604 10.2002 41 20.2998
c5.14941 3.80859 11.5498 6.08008 18.4404 6.08008c8.46484 0 16.1426 -3.40137 21.7393 -8.91016zM83.1396 34.4697c18 11.04 34.1299 17.2402 49.9502 23.1406c26.25 9.83984 51.0703 19.1094 85.9102 54c34.8398 34.8896 44.1201 59.6797 54 85.9492
c10.5596 28.3008 21.5596 57.5801 61.3398 97.3604s69.0703 50.7705 97.3506 61.3701c12.4697 4.70996 24.6396 9.32031 37.7295 16.5498l-22.4102 22.2705c-14.1094 -8.60059 -27.0596 -13.4707 -40.6094 -18.4707c-78.1006 -29.1299 -131.851 -81.96 -159.851 -157.13
l-1 -2.56934c-16.3799 -43.4102 -51.5498 -100.48 -125.91 -125.79c-19.8096 -7.35059 -39.5 -14.6807 -62.5596 -30.79zM456.31 292.79c19.8301 7.36035 39.5303 14.6904 62.6504 30.8701l-26.0703 25.8994c-18.0195 -11.0596 -34.1592 -17.2793 -49.9199 -23.1895
c-26.3096 -9.81055 -51.0898 -19.0605 -86 -54c-34.9102 -34.9404 -44.1895 -59.7402 -54.0596 -86c-10.6006 -28.3506 -21.5703 -57.5898 -61.3506 -97.3506c-39.7793 -39.7598 -69.0293 -50.7295 -97.3096 -61.3291c-12.4502 -4.6709 -24.6201 -9.29004 -37.6201 -16.5
l22.4102 -22.2705c14.0801 8.57031 27 13.4102 40.5098 18.4102c78.04 29.0703 131.84 81.9697 159.9 157.25l0.910156 2.41992c16.3701 43.3604 51.5098 100.44 125.949 125.79z" />
    <glyph glyph-name="book-medical" unicode="&#xf7e6;" horiz-adv-x="448" 
d="M448 64c0 -7.76562 -5.55664 -14.25 -12.9004 -15.7002c-4.19922 -13 -4.19922 -51.5996 0 -64.5996c7.34375 -1.4502 12.9004 -7.93164 12.9004 -15.6973v-0.00292969v-16c0 -8.83105 -7.16895 -16 -16 -16h-352c-44.1533 0 -80 35.8467 -80 80v352
c0 44.1533 35.8467 80 80 80h352c8.83105 0 16 -7.16895 16 -16v-368zM394 -16c-2.7002 17.2998 -2.7002 46.7002 0 64h-314c-17.6611 0 -32 -14.3389 -32 -32s14.3389 -32 32 -32h314zM400 96v304h-320c-17.6611 0 -32 -14.3389 -32 -32v-278.7
c9.75293 4.2832 20.5879 6.7002 31.915 6.7002h0.0849609h320zM136 224c-4.41504 0 -8 3.58496 -8 8v48c0 4.41504 3.58496 8 8 8h56v56c0 4.41504 3.58496 8 8 8h48c4.41504 0 8 -3.58496 8 -8v-56h56c4.41504 0 8 -3.58496 8 -8v-48c0 -4.41504 -3.58496 -8 -8 -8h-56v-56
c0 -4.41504 -3.58496 -8 -8 -8h-48c-4.41504 0 -8 3.58496 -8 8v56h-56z" />
    <glyph glyph-name="book-user" unicode="&#xf7e7;" horiz-adv-x="448" 
d="M240 240c-35.3223 0 -64 28.6777 -64 64s28.6777 64 64 64s64 -28.6777 64 -64s-28.6777 -64 -64 -64zM448 64c0 -7.76562 -5.55664 -14.25 -12.9004 -15.7002c-4.19922 -13 -4.19922 -51.5996 0 -64.5996c7.34375 -1.4502 12.9004 -7.93164 12.9004 -15.6973
v-0.00292969v-16c0 -8.83105 -7.16895 -16 -16 -16h-352c-44.1533 0 -80 35.8467 -80 80v352c0 44.1533 35.8467 80 80 80h352c8.83105 0 16 -7.16895 16 -16v-368zM394 -16c-2.7002 17.2998 -2.7002 46.7002 0 64h-314c-17.6611 0 -32 -14.3389 -32 -32s14.3389 -32 32 -32
h314zM400 96v304h-320c-17.6611 0 -32 -14.3389 -32 -32v-278.7c9.75293 4.2832 20.5879 6.7002 31.915 6.7002h0.0849609h320zM144 128c-8.83105 0 -16.0498 7.16895 -16.0498 16v22.4004c0 31.8096 30.0898 57.5996 67.2002 57.5996h5
c12.2451 -5.12305 25.8242 -7.9541 39.9189 -7.9541c14.0957 0 27.5352 2.83105 39.7803 7.9541h4.9502c37.1104 0 67.2002 -25.79 67.2002 -57.5996v-22.4004c0 -8.83105 -7.16895 -16 -16 -16h-192z" />
    <glyph glyph-name="brackets" unicode="&#xf7e9;" horiz-adv-x="448" 
d="M128 416c8.83105 0 16 -7.16895 16 -16v-16c0 -8.83105 -7.16895 -16 -16 -16h-80v-352h80c8.83105 0 16 -7.16895 16 -16v-16c0 -8.83105 -7.16895 -16 -16 -16h-96c-17.6611 0 -32 14.3389 -32 32v384c0 17.6611 14.3389 32 32 32h96zM416 416
c17.6611 0 32 -14.3389 32 -32v-384c0 -17.6611 -14.3389 -32 -32 -32h-96c-8.83105 0 -16 7.16895 -16 16v16c0 8.83105 7.16895 16 16 16h80v352h-80c-8.83105 0 -16 7.16895 -16 16v16c0 8.83105 7.16895 16 16 16h96z" />
    <glyph glyph-name="brackets-curly" unicode="&#xf7ea;" horiz-adv-x="576" 
d="M208 416c8.83105 0 16 -7.16895 16 -16v-16c0 -8.83105 -7.16895 -16 -16 -16h-88c-4.41504 0 -8 -3.58496 -8 -8v-77.4805c-0.00390625 -24.2881 -9.85059 -46.3037 -25.7803 -62.2393l-28.29 -28.2803l28.29 -28.2803
c15.9297 -15.9355 25.7764 -37.9512 25.7803 -62.2393v-77.4805c0 -4.41504 3.58496 -8 8 -8h88c8.83105 0 16 -7.16895 16 -16v-16c0 -8.83105 -7.16895 -16 -16 -16h-88c-30.9072 0 -56 25.0928 -56 56v77.4805c-0.0136719 11.041 -4.50391 21.0469 -11.7598 28.2793
l-45.2402 45.2402c-4.36133 4.34668 -7.0625 10.3652 -7.0625 17.0029c0 6.63867 2.70117 12.6504 7.0625 16.9971l45.2803 45.2197c7.24316 7.24121 11.7197 17.25 11.7197 28.29v77.4902c0 30.9072 25.0928 56 56 56h88zM569 209
c4.36133 -4.34668 7.0625 -10.3652 7.0625 -17.0029c0 -6.63867 -2.70117 -12.6504 -7.0625 -16.9971l-45.2803 -45.2197c-7.24316 -7.24121 -11.7197 -17.25 -11.7197 -28.29v-77.4902c0 -30.9072 -25.0928 -56 -56 -56h-88c-8.83105 0 -16 7.16895 -16 16v16
c0 8.83105 7.16895 16 16 16h88c4.41504 0 8 3.58496 8 8v77.4805c0 24.2861 9.84766 46.3105 25.7803 62.2393l28.2793 28.2803l-28.2793 28.2803c-15.9326 15.9287 -25.7803 37.9531 -25.7803 62.2393v77.4805c0 4.41504 -3.58496 8 -8 8h-88
c-8.83105 0 -16 7.16895 -16 16v16c0 8.83105 7.16895 16 16 16h88c30.9072 0 56 -25.0928 56 -56v-77.4805c0.0185547 -11.0371 4.50391 -21.04 11.75 -28.2793z" />
    <glyph glyph-name="bread-loaf" unicode="&#xf7eb;" horiz-adv-x="640" 
d="M400 416c132.55 0 240 -71.6299 240 -160c0 -35.3496 -26.8604 -64 -60 -64h-4v-192c0 -17.6611 -14.3389 -32 -32 -32h-448c-17.6611 0 -32 14.3389 -32 32v192h-4c-33.1396 0 -60 28.6504 -60 64c0 88.3701 107.45 160 240 160h160zM420 240
c5.79004 0 12 6.42969 12 16c0 59.6602 -89.7197 112 -192 112s-192 -52.3398 -192 -112c0 -9.57031 6.20996 -16 12 -16h52v-224h256v224h52z" />
    <glyph glyph-name="bread-slice" unicode="&#xf7ec;" horiz-adv-x="576" 
d="M288 448c177.88 0 288 -93.7695 288 -180.66c0 -38.0195 -24.29 -66.8994 -64 -73.75v-225.59c0 -17.6611 -14.3389 -32 -32 -32h-384c-17.6611 0 -32 14.3389 -32 32v225.8c-38 7.12012 -64 35.7998 -64 73.54c0 86.8906 110.12 180.66 288 180.66zM503.84 240.89
c16.2598 2.81055 24.1602 11.46 24.1602 26.4502c0 54.2197 -85.46 132.66 -240 132.66s-240 -78.4404 -240 -132.66c0 -19.5898 17.3701 -24.96 24.8398 -26.3398l39.1602 -1v-256h352v256z" />
    <glyph glyph-name="burrito" unicode="&#xf7ed;" 
d="M512 325c0 -0.0517578 -0.0380859 -0.164062 -0.0380859 -0.21582c0 -10.9395 -2.39648 -21.3223 -6.69238 -30.6543c4.30566 -9.85352 6.79395 -20.7539 6.79395 -32.1865c0 -33.0059 -19.9092 -61.3984 -48.3633 -73.8135l-218.15 -218.13
c-20.9971 -20.998 -50.0293 -33.9922 -82.041 -33.9922s-61.0117 12.9941 -82.0088 33.9922l-47.5 47.5c-20.998 20.9971 -33.9922 50.0293 -33.9922 82.041s12.9941 61.0117 33.9922 82.0088l218.12 218.15c12.4141 28.4541 40.8291 48.2637 73.835 48.2637
c11.4326 0 22.3115 -2.38867 32.165 -6.69434c9.37695 4.29785 19.8516 6.73047 30.833 6.73047c33.2871 0 61.4736 -22.0107 70.7871 -52.2598c30.2236 -9.33203 52.2188 -37.4785 52.2598 -70.7402zM163.52 -16c0.0683594 0 0.140625 -0.0107422 0.208984 -0.0107422
c18.71 0 35.6533 7.62305 47.8916 19.9307l200.7 200.7c-18.8584 7.15234 -39.2803 11.124 -60.6328 11.124c-13.0361 0 -25.7334 -1.45996 -37.9375 -4.22461c-30.9697 -81.4092 -109.61 -139.52 -201.75 -139.52c-21.2529 0.103516 -41.791 3.32129 -61.1797 9.15039
c3.08008 -11.3672 9.05273 -21.5742 17.0996 -29.71l47.5205 -47.5205c12.2363 -12.3076 29.1826 -19.9199 47.8916 -19.9199h0.1875zM268.43 348.12l-200.5 -200.51c-5.01367 -5.14062 -9.17676 -11.0225 -12.3701 -17.54
c17.6084 -6.38867 36.6611 -9.96973 56.4404 -10.0703c92.6201 0 168 75.3604 168 168c-0.124023 21.1641 -4.25781 41.5088 -11.5703 60.1201z" />
    <glyph glyph-name="chart-scatter" unicode="&#xf7ee;" 
d="M496 48c8.83105 0 16 -7.16895 16 -16v-16c0 -8.83105 -7.16895 -16 -16 -16h-464c-17.6611 0 -32 14.3389 -32 32v336c0 8.83105 7.16895 16 16 16h16c8.83105 0 16 -7.16895 16 -16v-320h448zM160 128c-17.6611 0 -32 14.3389 -32 32s14.3389 32 32 32
s32 -14.3389 32 -32s-14.3389 -32 -32 -32zM416 288c-17.6611 0 -32 14.3389 -32 32s14.3389 32 32 32s32 -14.3389 32 -32s-14.3389 -32 -32 -32zM192 288c-17.6611 0 -32 14.3389 -32 32s14.3389 32 32 32s32 -14.3389 32 -32s-14.3389 -32 -32 -32zM384 128
c-17.6611 0 -32 14.3389 -32 32s14.3389 32 32 32s32 -14.3389 32 -32s-14.3389 -32 -32 -32zM288 192c-17.6611 0 -32 14.3389 -32 32s14.3389 32 32 32s32 -14.3389 32 -32s-14.3389 -32 -32 -32z" />
    <glyph glyph-name="cheese" unicode="&#xf7ef;" 
d="M299.83 416c118.17 -6.2002 212.17 -104.05 212.17 -223.87v-192.13c0 -17.6611 -14.3389 -32 -32 -32h-448c-17.6611 0 -32 14.3389 -32 32v192.13l278.7 216.87c5.40039 4.29004 12.2363 6.90039 19.6396 7h1.49023zM303.6 367.6l-215.13 -167.42h374.771
c-4.00977 87.9502 -71.9004 159.75 -159.641 167.42zM464 16v136.11h-416v-136.11h416z" />
    <glyph glyph-name="cheese-swiss" unicode="&#xf7f0;" 
d="M176 128.1c26.4922 0 48 -21.5078 48 -48c0 -26.4912 -21.5078 -48 -48 -48s-48 21.5088 -48 48c0 26.4922 21.5078 48 48 48zM299.83 416c118.17 -6.2002 212.17 -104.05 212.17 -223.87v-192.13c0 -17.6611 -14.3389 -32 -32 -32h-448c-17.6611 0 -32 14.3389 -32 32
v192.13l278.7 216.87c5.40039 4.29004 12.2363 6.90039 19.6396 7h1.49023zM196.48 284.2l-108.011 -84.0605h238.19c8.19434 14.3691 23.5986 24.0654 41.3096 24.0654s33.1758 -9.69629 41.3701 -24.0654h53.9004c-4.00977 87.9502 -71.9004 159.75 -159.641 167.42
l-33.5996 -26.1494c10.9902 -8.78027 18.0273 -22.3164 18.0273 -37.4639c0 -26.4365 -21.4639 -47.8994 -47.9004 -47.8994c-19.3984 0 -36.1191 11.5557 -43.6465 28.1533zM464 16v136.11h-54.6602c-8.19434 -14.3691 -23.5986 -24.0654 -41.3096 -24.0654
s-33.1758 9.69629 -41.3701 24.0654h-278.66v-136.11h416z" />
    <glyph glyph-name="clinic-medical" unicode="&#xf7f2;" horiz-adv-x="576" 
d="M256 248c0 4.41504 3.58496 8 8 8h48c4.41504 0 8 -3.58496 8 -8v-56h56c4.41504 0 8 -3.58496 8 -8v-48c0 -4.41504 -3.58496 -8 -8 -8h-56v-56c0 -4.41504 -3.58496 -8 -8 -8h-48c-4.41504 0 -8 3.58496 -8 8v56h-56c-4.41504 0 -8 3.58496 -8 8v48
c0 4.41504 3.58496 8 8 8h56v56zM570.24 232.56c3.53613 -2.93555 5.77539 -7.34863 5.77539 -12.2998c0 -3.90332 -1.40039 -7.48145 -3.72559 -10.2598l-10.2598 -12.2998c-2.93652 -3.50586 -7.35059 -5.72168 -12.2754 -5.72168
c-3.90039 0 -7.47754 1.39844 -10.2549 3.72168l-27.5 22.5898v-266.29c0 -8.83105 -7.16895 -16 -16 -16h-416.21c-8.84473 0.0166016 -16.0293 7.16895 -16.0996 16v208h0.30957v58.29l-27.4697 -22.5498c-2.77832 -2.32324 -6.35938 -3.73633 -10.2598 -3.73633
c-4.92578 0 -9.33496 2.23047 -12.2705 5.73633l-10.2402 12.2998c-2.3252 2.77832 -3.74023 6.3623 -3.74023 10.2656c0 4.92773 2.23242 9.33789 5.74023 12.2744l246.37 202.42c9.71387 8.10254 22.2783 12.9795 35.9043 12.9795s26.1221 -4.87695 35.8359 -12.9795z
M464 224v33.7305l-176 144.619l-176 -144.58v-4l-0.30957 -0.25v-269.52h352.1v240h0.209961z" />
    <glyph glyph-name="clipboard-user" unicode="&#xf7f3;" horiz-adv-x="384" 
d="M336 384c26.4922 0 48 -21.5078 48 -48v-352c0 -26.4922 -21.5078 -48 -48 -48h-288c-26.4922 0 -48 21.5078 -48 48v352c0 26.4922 21.5078 48 48 48h80c0 35.3223 28.6777 64 64 64s64 -28.6777 64 -64h80zM192 408c-13.2461 0 -24 -10.7539 -24 -24
s10.7539 -24 24 -24s24 10.7539 24 24s-10.7539 24 -24 24zM336 -10v340c0 3.31152 -2.68848 6 -6 6h-42v-36c0 -6.62305 -5.37695 -12 -12 -12h-168c-6.62305 0 -12 5.37695 -12 12v36h-42c-3.31152 0 -6 -2.68848 -6 -6v-340c0 -3.31152 2.68848 -6 6 -6h276
c3.31152 0 6 2.68848 6 6zM236.8 96c37.1104 0 67.2002 -25.79 67.2002 -57.5996v-6.40039c0 -8.83105 -7.16895 -16 -16 -16h-192c-8.83105 0 -16 7.16895 -16 16v6.40039c0 31.8096 30.0898 57.5996 67.0996 57.5996h5c12.2461 -5.12305 25.8252 -7.9541 39.9199 -7.9541
c14.0957 0 27.5352 2.83105 39.7803 7.9541h5zM192 112c-35.3223 0 -64 28.6777 -64 64s28.6777 64 64 64s64 -28.6777 64 -64s-28.6777 -64 -64 -64z" />
    <glyph glyph-name="comment-alt-medical" unicode="&#xf7f4;" 
d="M448 448c35.3223 0 64 -28.6777 64 -64v-288c0 -35.3223 -28.6777 -64 -64 -64h-144l-124.87 -93.6299c-1.97168 -1.47949 -4.42871 -2.36426 -7.08008 -2.37012h-0.0498047c-6.62305 0 -12 5.37695 -12 12v84h-96c-35.3223 0 -64 28.6777 -64 64v288
c0 35.3223 28.6777 64 64 64h384zM464 96v288c0 8.83105 -7.16895 16 -16 16h-384c-8.83105 0 -16 -7.16895 -16 -16v-288c0 -8.83105 7.16895 -16 16 -16h144v-60l67.21 50.4004l12.79 9.59961h160c8.83105 0 16 7.16895 16 16zM344 272c4.41504 0 8 -3.58496 8 -8v-48
c0 -4.41504 -3.58496 -8 -8 -8h-56v-56c0 -4.41504 -3.58496 -8 -8 -8h-48c-4.41504 0 -8 3.58496 -8 8v56h-56c-4.41504 0 -8 3.58496 -8 8v48c0 4.41504 3.58496 8 8 8h56v56c0 4.41504 3.58496 8 8 8h48c4.41504 0 8 -3.58496 8 -8v-56h56z" />
    <glyph glyph-name="comment-medical" unicode="&#xf7f5;" 
d="M344 240c4.41504 0 8 -3.58496 8 -8v-48c0 -4.41504 -3.58496 -8 -8 -8h-56v-56c0 -4.41504 -3.58496 -8 -8 -8h-48c-4.41504 0 -8 3.58496 -8 8v56h-56c-4.41504 0 -8 3.58496 -8 8v48c0 4.41504 3.58496 8 8 8h56v56c0 4.41504 3.58496 8 8 8h48
c4.41504 0 8 -3.58496 8 -8v-56h56zM256 416c141.38 0 256 -93.1299 256 -208s-114.62 -208 -256 -208c-0.0332031 0 -0.0800781 0.0673828 -0.114258 0.0673828c-32.3135 0 -63.4697 4.99805 -92.7354 14.2627c-29.1504 -20.6104 -77.6406 -46.3301 -139.15 -46.3301
c-0.0107422 0 -0.0205078 0.00683594 -0.03125 0.00683594c-13.2461 0 -24 10.7539 -24 24c0 6.38574 2.49902 12.1914 6.57129 16.4932c0.459961 0.44043 31.46 33.7803 46.3604 73.2305c-33.04 35.0391 -52.9004 78.7197 -52.9004 126.27c0 114.88 114.62 208 256 208z
M256 48c114.69 0 208 71.7803 208 160s-93.3096 160 -208 160s-208 -71.7803 -208 -160c0 -42.25 21.6504 -74.0703 39.8203 -93.3301l20.5898 -21.8301l-10.6104 -28.0703c-5.40039 -14.0293 -12.1084 -27.585 -19.8594 -40.25c20.6729 6.73535 40.127 16.626 57.4697 29
l19.4697 13.7803l22.75 -7.20996c24.6855 -7.81641 50.9746 -12.0898 78.2314 -12.0898h0.138672z" />
    <glyph glyph-name="croissant" unicode="&#xf7f6;" 
d="M507.72 280c17.6006 -46.3604 -21.5996 -95.3799 -71.4199 -87.0801l-94.4502 15.7402c-2.11426 -1.74414 -4.30566 -3.34375 -6.61914 -4.83008c-1.07031 -17.6299 -7.91016 -34.6396 -20.8506 -47.5801l-22.6396 -22.6201
c-12.4658 -12.4258 -29.4648 -20.3574 -48.2402 -21.1699c-1.35059 -1.98438 -2.77832 -3.86816 -4.32031 -5.7002l15.8506 -95.0693c8.22949 -49.4004 -40.3203 -89.1104 -87.1104 -71.4004c-36.5918 13.8672 -66.6846 40.4111 -85.0596 74.5195
c-16.7549 3.51758 -31.3643 12.8926 -41.5 25.9502c-25.7598 33.8252 -41.1406 76.0918 -41.1406 121.85c0 16.0068 1.87305 31.5791 5.41016 46.5107c-3.59375 8.62891 -5.60645 18.1084 -5.60645 28.0342c0 6.01855 0.730469 11.8691 2.10645 17.4658
c23.3652 93.8281 97.4014 167.844 191.24 191.18c5.6748 1.43457 11.6367 2.16992 17.7549 2.16992c10.0205 0 19.5674 -2.04492 28.2451 -5.73926c14.8145 3.64844 30.2139 5.65137 46.1201 5.76953c45.9727 -0.12207 88.5537 -15.6279 122.569 -41.5098
c13.3203 -10.334 22.8174 -25.3223 26.1807 -42.4902c33.5713 -18.2598 59.7109 -47.9404 73.4795 -84zM111.81 65.7402l75.3408 59.1201l-135.28 41.6094c-1.12012 0.330078 -2.08008 0.94043 -3.17969 1.33008c-1.02051 -34.6895 8.98926 -69.2998 30.8398 -97.9395
c6.48926 -8.51074 20.7695 -13.1201 32.2793 -4.12012zM184.94 -14.8398c1.85254 -0.693359 3.86523 -1.09473 5.95898 -1.09473c9.38281 0 17 7.61719 17 17c0 0.930664 -0.0751953 1.84375 -0.219727 2.73438l-11.2295 67.3506l-55 -43.1602
c-2.22168 -1.65527 -4.52832 -3.17188 -6.94043 -4.56055c12.7568 -17.1738 30.1396 -30.4844 50.4307 -38.2695zM280.43 190.16c4.63379 4.62695 7.49414 11.0557 7.49414 18.1152c0 2.62598 -0.397461 5.15918 -1.13379 7.54492l-51.1504 166.18
c-3.22754 10.4248 -12.9346 18.0049 -24.4141 18.0049c-2.14746 0 -4.23242 -0.265625 -6.22559 -0.764648c-76.6904 -19.0742 -137.197 -79.5615 -156.3 -156.24c-0.498047 -1.99121 -0.764648 -4.05859 -0.764648 -6.2041c0 -11.5029 7.60938 -21.2422 18.0645 -24.4561
l166.21 -51.1602c2.37793 -0.731445 4.90527 -1.13379 7.52148 -1.13379c7.05664 0 13.4502 2.86523 18.0781 7.49414zM323.38 260.05l59.6797 76.04c8.95996 11.4199 4.45996 25.7305 -4.11914 32.2705c-25.9014 19.7891 -58.3809 31.6211 -93.46 31.6299
c-1.79004 0 -3.58008 -0.299805 -5.37012 -0.379883c0.419922 -1.2002 1.0293 -2.32031 1.41992 -3.56055zM444.2 240.26c0.893555 -0.145508 1.78906 -0.212891 2.72461 -0.212891c9.38184 0 17 7.61719 17 17c0 2.10547 -0.383789 4.12207 -1.08496 5.9834
c-7.70703 20.0615 -20.8096 37.2793 -37.71 50c-1.31738 -2.27344 -2.75 -4.4502 -4.30957 -6.5498l-43.2607 -55.1201z" />
    <glyph glyph-name="crutch" unicode="&#xf7f7;" 
d="M507.31 262.41c2.88867 -2.89551 4.6748 -6.89355 4.6748 -11.3027c0 -4.41797 -1.79492 -8.4209 -4.69434 -11.3174l-11.3096 -11.2998c-2.89648 -2.89746 -6.90137 -4.69043 -11.3174 -4.69043s-8.41699 1.79297 -11.3135 4.69043l-181 180.899
c-2.89062 2.89551 -4.67969 6.89648 -4.67969 11.3076s1.78906 8.40723 4.67969 11.3027l11.3203 11.3203c2.89551 2.89355 6.89844 4.68457 11.3125 4.68457c4.41309 0 8.41211 -1.79102 11.3076 -4.68457zM328.56 185.21l71.4404 71.3799l33.9404 -33.9199
l-121.16 -121.06c-11.4443 -11.4531 -26.0928 -19.749 -42.4102 -23.5107l-122.5 -28.2393l-108.66 -108.591c-3.25781 -3.25586 -7.76172 -5.27148 -12.7275 -5.27148s-9.46484 2.01562 -12.7227 5.27148l-8.49023 8.48047
c-3.25293 3.25781 -5.2666 7.75977 -5.2666 12.7227s2.01367 9.45996 5.2666 12.7178l108.641 108.569l28.3096 122.471c3.74414 16.3291 12.0391 30.9873 23.5 42.4297l121.141 121l33.9395 -33.9199l-71.4297 -71.3799zM278.81 135.51l15.8408 15.79l-79.1904 79.1406
l-15.7695 -15.7607c-5.21387 -5.19238 -8.98828 -11.8506 -10.6904 -19.2695l-21.2197 -91.7402l91.7793 21.1797c7.40918 1.69824 14.0596 5.46094 19.25 10.6602z" />
    <glyph glyph-name="crutches" unicode="&#xf7f8;" horiz-adv-x="640" 
d="M635.31 262.41c2.88867 -2.89551 4.6748 -6.89355 4.6748 -11.3027c0 -4.41797 -1.79492 -8.4209 -4.69434 -11.3174l-11.3096 -11.2998c-2.89648 -2.89746 -6.90137 -4.69043 -11.3174 -4.69043s-8.41699 1.79297 -11.3135 4.69043l-181 180.899
c-2.89062 2.89551 -4.67969 6.89648 -4.67969 11.3076s1.78906 8.40723 4.67969 11.3027l11.3203 11.3203c2.89551 2.89355 6.89844 4.68457 11.3125 4.68457c4.41309 0 8.41211 -1.79102 11.3076 -4.68457zM456.56 185.21l71.4404 71.3799l33.9404 -33.9199
l-121.16 -121.06c-11.4443 -11.4531 -26.0928 -19.749 -42.4102 -23.5107l-122.49 -28.2393l-108.67 -108.591c-3.25781 -3.25586 -7.76172 -5.27148 -12.7275 -5.27148s-9.46484 2.01562 -12.7227 5.27148l-8.49023 8.48047
c-3.25293 3.25781 -5.2666 7.75977 -5.2666 12.7227s2.01367 9.45996 5.2666 12.7178l108.641 108.569l28.3096 122.471c3.74414 16.3291 12.0391 30.9873 23.5 42.4297l121.141 121l33.9395 -33.9199l-71.4297 -71.3799zM406.81 135.51l15.8408 15.79l-79.1904 79.1406
l-15.7695 -15.7607c-5.21387 -5.19238 -8.98828 -11.8506 -10.6904 -19.2695l-21.2197 -91.7402l91.7793 21.1797c7.40918 1.69824 14.0596 5.46094 19.25 10.6602zM207.93 95c-2.87988 2.28027 -6.12012 4 -8.70996 6.61035l-143.779 143.68l-16.8105 -16.79
c-2.89648 -2.89648 -6.90137 -4.68945 -11.3174 -4.68945s-8.41602 1.79297 -11.3125 4.68945l-11.3096 11.2998c-2.8916 2.89551 -4.67969 6.89648 -4.67969 11.3076s1.78809 8.40723 4.67969 11.3027l181.02 180.91c2.89551 2.89355 6.89844 4.68457 11.3125 4.68457
c4.41309 0 8.41211 -1.79102 11.3076 -4.68457l11.3203 -11.3105c2.89062 -2.89551 4.67969 -6.89648 4.67969 -11.3066c0 -4.41113 -1.78906 -8.40723 -4.67969 -11.3027l-17.1309 -17.1201l94.9004 -94.8105l-26.2695 -26.25
c-2.58008 -2.58008 -4.82031 -5.42969 -7.15039 -8.21973l-95.4199 95.3604l-79.2002 -79.1504l133.93 -133.88l-10.5098 -45.4697zM427.36 54.4697l79.3701 -79.3193c3.25293 -3.25781 5.2666 -7.75977 5.2666 -12.7227c0 -4.96387 -2.01367 -9.45996 -5.2666 -12.7178
l-8.49023 -8.47949c-3.25781 -3.25684 -7.76172 -5.27246 -12.7275 -5.27246s-9.46484 2.01562 -12.7227 5.27246l-98.5 98.4297l31.2695 7.20996c7.51367 1.83301 14.9131 4.42773 21.8008 7.59961z" />
    <glyph glyph-name="debug" unicode="&#xf7f9;" 
d="M117.75 177l45.0195 6.41992l116.11 -116.15c-7.5625 -2.12402 -15.5488 -3.26758 -23.7871 -3.26758c-22.9229 0 -43.8066 8.80273 -59.4531 23.208l-37.6396 -25.0996c-2.65918 -1.96973 -5.98047 -3.15332 -9.54102 -3.15332c-8.83008 0 -16 7.16895 -16 16
c0 5.85059 3.14844 10.9727 7.84082 13.7627l35.5098 23.6904c-6.31055 11.6455 -10.1904 24.9863 -10.8096 39l-42.75 -6.08984c-0.796875 -0.12207 -1.58008 -0.18457 -2.41016 -0.18457c-8.83105 0 -16 7.16895 -16 16c0 8.12207 6.06543 14.8389 13.9102 15.8643z
M256 440c137 0 248 -111 248 -248s-111 -248 -248 -248s-248 111 -248 248s111 248 248 248zM256 -8c46.4678 0.00292969 89.3809 16.0576 123.25 42.8096l-280.44 280.44c-26.752 -33.8691 -42.8066 -76.7822 -42.8096 -123.25c0 -110.28 89.7197 -200 200 -200z
M413.19 68.75c26.752 33.8691 42.8066 76.7822 42.8096 123.25c0 110.28 -89.7197 200 -200 200c-46.4561 -0.00976562 -89.3584 -16.0635 -123.22 -42.8096l57.5 -57.5c16.4629 17.4434 39.8311 28.2998 65.6865 28.2998c23.2139 0 44.3926 -8.78125 60.3936 -23.2002
l37.6396 25.0996c2.62793 1.89258 5.88379 3.02539 9.36523 3.02539c8.83105 0 16 -7.16895 16 -16c0 -5.76953 -3.06055 -10.8301 -7.64551 -13.6455l-35.5098 -23.6895c5.06836 -9.42676 8.56641 -20.0439 10 -31.0996l43.5205 6.21973
c0.795898 0.12207 1.5791 0.18457 2.41016 0.18457c8.83008 0 16 -7.16992 16 -16c0 -8.12305 -6.06543 -14.8398 -13.9102 -15.8652l-46.8203 -6.69922v-24.6504l46.8203 -6.68945c7.84473 -1.02539 13.9424 -7.74316 13.9424 -15.8662c0 -8.83008 -7.16992 -16 -16 -16
c-0.831055 0 -1.64648 0.0634766 -2.44238 0.185547l-42.7305 6.11035c-0.274414 -4.94238 -0.955078 -9.79199 -2 -14.4902z" />
    <glyph glyph-name="disease" unicode="&#xf7fa;" 
d="M459.68 268.37c30.1201 -10.1602 50.1201 -34.3701 52.1904 -63.0801c2 -27.9404 -13.6602 -53.8096 -40.8701 -67.54l-56.2598 -28.3604c-8.62012 -4.33008 -14.0605 -11.3594 -14.6201 -18.7998l-4.25 -55.2402c-2 -25.5801 -18.3398 -47.75 -43.75 -59.3496
c-11.2764 -5.10938 -23.8633 -8 -37.0391 -8h-0.210938c-0.181641 -0.000976562 -0.431641 0.0429688 -0.614258 0.0429688c-19.1475 0 -36.8623 6.18164 -51.2559 16.6572l-49.2197 36.46c-8.56055 6.33008 -21.0605 8.76953 -32.3799 6.28027l-63.4004 -13.6406
c-33.1699 -7.08984 -66.8604 4.44043 -86.0703 29.3506c-16.1797 21.0195 -18.7793 47.4893 -6.92969 70.8496l25.6699 50.8896c3.32031 6.51074 2.62988 13.5 -2 19.6699l-34.9004 46.8008c-16.25 21.7393 -18.2197 48.6797 -5.36914 72.0596
c14.8691 27 46.1797 42.7305 79.9297 40.1904l65.1201 -5c11.5596 -0.860352 23.1494 2.97949 30.1494 10.1396l41.8105 42.5703c21.1299 21.4697 53.3701 29.7197 84.25 21.6201c28.0596 -7.44043 48.8994 -26.9805 55.71 -52.4404l14.5303 -53.9404
c2.05957 -7.75 9.18945 -14.3799 19 -17.6992zM449.33 180.63c9.91016 4.98047 15.25 12.7305 14.6699 21.25c-0.700195 9.21973 -8 17.1201 -19.6396 21l-60.7705 20.5c-25.0898 8.45996 -43.8096 27.4102 -50.0898 50.7002l-14.5 54
c-2.30957 8.62988 -10.3398 15.5195 -21.5596 18.46c-14 3.69043 -28.9102 0.229492 -37.7803 -8.84961l-41.8105 -42.5508c-16.9697 -17.2598 -42.8398 -26.3594 -68.0898 -24.3594l-65.1201 5c-17.75 1.37012 -29.7793 -7.5 -34.1797 -15.5
c-3.75 -6.7998 -3.16016 -13.6006 1.75 -20.1807l34.9902 -46.8096c15.3701 -20.6299 17.8096 -47.4805 6.37012 -70.0703l-25.7402 -50.8799c-3.46973 -6.83008 -2.75 -13.5 2.12012 -19.8301c6.58984 -8.51953 21 -15.5 38 -11.7695l63.3994 13.6396
c6.13086 1.30859 12.4258 2 18.9443 2h0.0556641c18.7803 0 37.3105 -5.79004 52 -16.6396l49.21 -36.4707c13.6602 -10.0791 30.4102 -8.25 40.6602 -3.55957c4.43066 2.03027 14.9004 7.98047 15.7803 19.3604l4.25 55.21c1.87012 24.3594 17.1504 46 40.8701 58zM160 256
c17.6611 0 32 -14.3389 32 -32s-14.3389 -32 -32 -32s-32 14.3389 -32 32s14.3389 32 32 32zM288 160c17.6445 0 31.9727 -14.3623 32 -32c0 -17.6611 -14.3389 -32 -32 -32s-32 14.3389 -32 32s14.3389 32 32 32zM304 256c8.83105 0 16 -7.16895 16 -16
s-7.16895 -16 -16 -16s-16 7.16895 -16 16s7.16895 16 16 16z" />
    <glyph glyph-name="egg" unicode="&#xf7fb;" horiz-adv-x="384" 
d="M192 448c106 0 192 -214 192 -320s-86 -192 -192 -192s-192 86 -192 192s86 320 192 320zM192 -16c79.4004 0 144 64.5996 144 144c0 117.41 -90.5801 272 -144 272s-144 -154.59 -144 -272c0 -79.4004 64.5996 -144 144 -144z" />
    <glyph glyph-name="egg-fried" unicode="&#xf7fc;" 
d="M478.32 297.55c54.3193 -51.5498 38.8896 -149.28 -17.3906 -192.1c-47.5293 -36.1699 -97.25 -32.4502 -140.93 -73.8906c-46.7803 -44.3799 -91.0596 -95.5596 -155.72 -95.5596c-15.0898 0 -31.2803 2.79004 -48.9199 9.11035
c-62.1406 22.2998 -110.561 84.8398 -114.971 150.75c-4.40918 65.9092 38.9004 128.569 50 192.909c13.29 77.1309 38.2207 143.131 125 157.131c8.2334 1.35645 16.542 2.07227 25.1504 2.09961c55.0898 0 89.7295 -32.2598 133.39 -68.21
s104.891 -41.5303 144.391 -82.2402zM431.89 143.71c18 13.7002 30.5605 39.3701 31.9502 65.4004c0.700195 12.7598 -0.790039 36.6895 -18.5703 53.5693l-0.719727 0.680664l-0.689453 0.709961c-14.5605 15.0098 -36.0801 24.1602 -61.0801 34.7598
c-25.2705 10.7295 -53.9102 22.8496 -79.3604 43.8496l-9.38965 7.77051c-39.21 32.5 -61.1807 49.5 -93.5107 49.5c-5.99512 -0.0322266 -11.7852 -0.539062 -17.5195 -1.49023c-50 -8.05957 -71.5195 -37.7998 -85.3496 -117.92
c-5.19043 -30.3604 -15.8906 -58.5703 -26.1904 -85.8496c-12.9502 -34.29 -25.1797 -66.6904 -23.2598 -95.6904c3.05957 -46 38.8896 -92.7002 83.3594 -108.71c11.8008 -4.23047 22.5 -6.29004 32.7207 -6.29004c37.7695 0 69.4893 30.8701 106.239 66.5498
c5.48047 5.33008 10.9707 10.6504 16.4805 15.8799c30.71 29.1807 62.7402 40.8506 91 51.1807c20.2197 7.38965 37.7002 13.7793 53.8896 26.0996zM224 319.86c61.79 0 112 -50.3203 112 -112.13c0 -61.8105 -50.2402 -112.11 -112 -112.11s-112 50.2803 -112 112.11
c0 61.8291 50.2803 112.13 112 112.13zM224 247.79c8.83105 0 16 7.19922 16 16.0303c0 8.83008 -7.16895 16 -16 16c-39.7354 -0.0722656 -71.9775 -32.3438 -72 -72.0898c0 -8.83105 7.16895 -16 16 -16s16 7.16895 16 16c0.0107422 22.084 17.9238 40.0156 40 40.0596z
" />
    <glyph glyph-name="fish-cooked" unicode="&#xf7fe;" horiz-adv-x="640" 
d="M360.18 384c153.91 0 279.82 -144.95 279.82 -192s-125.91 -192 -279.78 -192c-103.22 0 -183.22 62.9404 -220.22 98.5l-72.8896 -57.5801c-7.15527 -5.53418 -16.2061 -8.82031 -25.9424 -8.82031c-8.24805 0 -15.9473 2.36426 -22.458 6.4502
c-11.2383 6.88379 -18.7012 19.2266 -18.7012 33.3594c0 2.84473 0.303711 5.61816 0.880859 8.29102l23.7803 111.8l-23.7803 111.86c-3.5 16.1396 3.5 32.5498 17.8906 41.5801c6.51465 4.10547 14.3057 6.48926 22.5693 6.48926
c9.64258 0 18.5352 -3.23633 25.6504 -8.67969l73 -57.7305c36.9297 35.5605 117 98.4805 220.18 98.4805zM360.18 48c125.221 0 227.98 119.88 231.851 144.8c-3.85059 23.3203 -106.63 143.2 -231.851 143.2c-18.6299 0 -107.43 3 -215.5 -115.39l-92.5693 73.1895
l21.6299 -101.8l-21.6299 -101.77l92.5 73.1592c107.93 -117.979 197.569 -115.39 215.569 -115.39zM347.31 288c2.89746 -2.89648 4.69043 -6.90137 4.69043 -11.3174c0 -4.41113 -1.78906 -8.40723 -4.67969 -11.3027l-84.6904 -84.6895
c-2.89648 -2.89746 -6.90137 -4.69043 -11.3174 -4.69043s-8.41602 1.79297 -11.3125 4.69043l-11.3096 11.3096c-2.89453 2.89551 -4.68555 6.89844 -4.68555 11.3125c0 4.41309 1.79102 8.41211 4.68555 11.3076l84.6895 84.6895
c2.89551 2.89453 6.89941 4.68555 11.3125 4.68555s8.41211 -1.79102 11.3076 -4.68555zM459.31 272c2.89453 -2.89551 4.68555 -6.89844 4.68555 -11.3125c0 -4.41309 -1.79102 -8.41211 -4.68555 -11.3076l-148.68 -148.689
c-2.89648 -2.89746 -6.90137 -4.69043 -11.3174 -4.69043s-8.41602 1.79297 -11.3125 4.69043l-11.3203 11.3096c-2.89355 2.89551 -4.68457 6.89844 -4.68457 11.3125c0 4.41309 1.79102 8.41211 4.68457 11.3076l148.69 148.689
c2.89648 2.89746 6.90137 4.69043 11.3174 4.69043s8.41602 -1.79297 11.3125 -4.69043zM496 203.31l11.3203 -11.3096c2.89355 -2.89551 4.68457 -6.89844 4.68457 -11.3125c0 -4.41309 -1.79102 -8.41211 -4.68457 -11.3076l-84.6904 -84.6895
c-2.89648 -2.89746 -6.90137 -4.69043 -11.3174 -4.69043s-8.41602 1.79297 -11.3125 4.69043l-11.3203 11.3096c-2.89355 2.89551 -4.68457 6.89844 -4.68457 11.3125c0 4.41309 1.79102 8.41211 4.68457 11.3076l84.6904 84.6895
c2.89648 2.89746 6.90137 4.69043 11.3174 4.69043s8.41602 -1.79297 11.3125 -4.69043z" />
    <glyph glyph-name="flower-daffodil" unicode="&#xf800;" 
d="M495.87 160c9.18945 0 16.9795 -9 16.0596 -19.6504c-9.98926 -114.5 -106.359 -204.35 -223.76 -204.35h-64.3398c-117.4 0 -213.771 89.8496 -223.76 204.3c-0.94043 10.6504 6.87012 19.6504 16.0596 19.6504h47.2705c67.4395 0 127.479 -30 168.6 -77v82
c-9.24707 -3.19141 -19.1943 -4.95508 -29.5205 -4.95508c-49.9365 0 -90.4795 40.543 -90.4795 90.4805v0.194336c0 0.078125 0.0439453 0.230469 0.0439453 0.308594c0 19.8408 6.47559 38.1816 17.4258 53.0215c-10.9502 14.8398 -17.4697 33.2539 -17.4697 53.0947
v0.235352c0.0439453 50.0146 40.6377 90.6152 90.6504 90.6699c0.0878906 0 0.249023 -0.0439453 0.337891 -0.0439453c19.8379 0 38.1748 -6.47559 53.0117 -17.4258c14.8359 10.9502 33.2441 17.4697 53.0811 17.4697h0.258789
c50.0146 -0.0546875 90.6104 -40.6543 90.6602 -90.6699c0 -0.078125 -0.0439453 -0.230469 -0.0439453 -0.308594c0 -19.8408 -6.47559 -38.1816 -17.4258 -53.0215c10.9297 -14.96 17.4082 -33.4473 17.4082 -53.375c0 -49.96 -40.5615 -90.5205 -90.5205 -90.5205
c-10.2959 0 -20.1934 1.72266 -29.418 4.89551v-82c41.1201 47 101.16 77 168.61 77h47.2598zM223.87 -16h16.2598l-25.2402 42.0801c-32.2598 53.71 -85.6797 85.9199 -160.93 85.9199c21.21 -73.9102 90.3701 -128 169.91 -128zM236.79 225.37l19.21 25.8301
l19.25 -25.8301c7.67578 -10.5322 20.0781 -17.3496 34.0898 -17.3701c23.5352 0.0273438 42.6377 19.1338 42.6602 42.6699c-0.0302734 14.0088 -6.84961 26.4062 -17.3799 34.0801l-25.8105 19.25l25.8105 19.25c10.5303 7.67383 17.3496 20.0713 17.3799 34.0801
c-0.0224609 23.5361 -19.125 42.6426 -42.6602 42.6699c-14.0146 -0.0195312 -26.4189 -6.8418 -34.0898 -17.3799l-19.25 -25.8203l-19.25 25.8203c-7.67578 10.5381 -20.082 17.3604 -34.0996 17.3799c-23.5332 -0.0273438 -42.6338 -19.1338 -42.6504 -42.6699
c0.0253906 -14.0078 6.8418 -26.4053 17.3701 -34.0801l25.8203 -19.25l-25.7803 -19.25c-10.5391 -7.7334 -17.3701 -20.2246 -17.3701 -34.2861c0 -23.4453 19.0352 -42.4795 42.4805 -42.4795c14.0615 0 26.5361 6.84668 34.2695 17.3857zM288 -16
c79.6904 0 148.86 54.0898 170.08 128c-75.6299 0 -128.86 -32.5195 -160.93 -85.9199l-25.2803 -42.0801h16.1299zM288 304c0 -17.6611 -14.3389 -32 -32 -32s-32 14.3389 -32 32s14.3389 32 32 32s32 -14.3389 32 -32z" />
    <glyph glyph-name="flower-tulip" unicode="&#xf801;" 
d="M495.87 160c9.18945 0 16.9795 -9 16.0596 -19.6504c-9.98926 -114.5 -106.359 -204.35 -223.76 -204.35h-64.3398c-117.4 0 -213.771 89.8496 -223.76 204.35c-0.94043 10.6504 6.87012 19.6504 16.0596 19.6504h47.2705c67.4395 0 127.479 -30 168.6 -77v77.1602
c-75.2402 0.839844 -136 61.9902 -136 137.439v134.4c0.0175781 8.81641 7.19434 15.9609 16.0137 15.9609c3.52734 0 6.79004 -1.14453 9.43652 -3.08105l73.9102 -53.6396l48.3496 51c2.93555 3.52148 7.3457 5.76465 12.2852 5.76465s9.35938 -2.24316 12.2949 -5.76465
l48.3496 -51l73.9102 53.6396c2.64648 1.93652 5.92285 3.08887 9.4502 3.08887c8.82031 0 15.9824 -7.15234 16 -15.9688v-134.4c0 -75.4395 -60.7598 -136.56 -136 -137.439v-77.1602c41.1201 47 101.16 77 168.6 77h47.2705zM144 297.6
c0.00585938 -49.4482 40.1514 -89.5938 89.5996 -89.5996h44.8008c49.4512 0 89.5996 40.1484 89.5996 89.5996v72l-56 -41.5996l-56 56l-56 -56l-56 41.5996v-72zM223.83 -16h16.2998l-25.2803 42.0801c-32.2598 53.71 -85.6797 85.9199 -160.93 85.9199
c21.21 -73.9102 90.3701 -128 169.91 -128zM288 -16c79.6904 0 148.86 54.0898 170.08 128c-75.7002 0 -128.93 -32.5801 -160.93 -85.9199l-25.2803 -42.0801h16.1299z" />
    <glyph glyph-name="folder-tree" unicode="&#xf802;" horiz-adv-x="576" 
d="M288 224c-17.6611 0 -32 14.3389 -32 32v40h-176v-240h176v72c0 17.6611 14.3389 32 32 32h80l32 -32h112c17.6611 0 32 -14.3389 32 -32v-128c0 -17.6611 -14.3389 -32 -32 -32h-224c-17.6611 0 -32 14.3389 -32 32v40h-192c-17.6611 0 -32 14.3389 -32 32v392
c0 8.83105 7.16895 16 16 16h16c8.83105 0 16 -7.16895 16 -16v-88h176v72c0 17.6611 14.3389 32 32 32h80l32 -32h112c17.6611 0 32 -14.3389 32 -32v-128c0 -17.6611 -14.3389 -32 -32 -32h-224zM304 400v-128h192v96h-115.88l-32 32h-44.1201zM304 112v-128h192v96
h-115.88l-32 32h-44.1201z" />
    <glyph glyph-name="glass" unicode="&#xf804;" horiz-adv-x="384" 
d="M352 448c17.6611 0 32.0029 -14.3125 32.0029 -31.9736c0 -0.680664 -0.0205078 -1.35645 -0.0625 -2.02637l-32 -448c-1.04785 -16.7188 -14.96 -30 -31.9404 -30h-256c-16.9805 0 -30.8926 13.2812 -31.9404 30l-32 448
c-0.0419922 0.669922 -0.0595703 1.31934 -0.0595703 2c0 17.6611 14.3389 32 32 32h320zM334.81 400h-285.63l8 -112h269.63zM305.1 -16l18.2803 256h-262.77l18.29 -256h226.199z" />
    <glyph glyph-name="hamburger" unicode="&#xf805;" 
d="M352 272c-8.83105 0 -16 7.16895 -16 16s7.16895 16 16 16s16 -7.16895 16 -16s-7.16895 -16 -16 -16zM256 304c-8.83105 0 -16 7.16895 -16 16s7.16895 16 16 16s16 -7.16895 16 -16s-7.16895 -16 -16 -16zM160 272c-8.83105 0 -16 7.16895 -16 16s7.16895 16 16 16
s16 -7.16895 16 -16s-7.16895 -16 -16 -16zM512 160c-0.0244141 -26.8828 -13.3037 -50.6279 -33.7305 -65.0596c0.660156 -2.83008 1.73047 -5.53027 1.73047 -8.53027v-34.6797c-0.0498047 -46.1855 -37.5361 -83.6758 -83.7197 -83.7305h-280.561
c-46.1699 0.0712891 -83.6406 37.5547 -83.6895 83.7305v34.6797c0 3.01953 1.06934 5.7002 1.72949 8.53027c-20.4375 14.3535 -33.7764 38.04 -33.7764 64.8887c0 24.2744 10.9268 46.0156 28.127 60.5713c-0.360352 0.549805 -0.860352 0.939453 -1.20996 1.48926
c-6.85742 11.0879 -10.8164 24.3086 -10.8164 38.292c0 13.5703 3.72852 26.2754 10.2158 37.1484c43.4404 72 133.59 118.58 229.7 118.67c96.1797 -0.0898438 186.33 -46.6904 229.76 -118.69c6.47852 -10.8652 10.2021 -23.7148 10.2021 -37.2734
c0 -13.9922 -3.96484 -27.0654 -10.832 -38.1562c-0.349609 -0.55957 -0.839844 -0.939453 -1.2002 -1.47949c17.1465 -14.5381 28.0088 -36.1963 28.0703 -60.4004zM67.3701 272.54c-2.13867 -3.64258 -3.36426 -7.93555 -3.36426 -12.4609
c0 -4.65039 1.29492 -9 3.54395 -12.709c2.94043 -4.67969 7.37988 -7.37012 12.2002 -7.37012h352.53c4.81934 0 9.26953 2.67969 12.2002 7.36035c2.25488 3.71484 3.55469 8.12695 3.55469 12.7871c0 4.51367 -1.21875 8.74512 -3.34473 12.3828
c-34.9404 57.8994 -109 95.3799 -188.69 95.4697c-79.6797 -0.0898438 -153.7 -37.5596 -188.63 -95.46zM432 51.7305v25.5996h-352v-25.5996c0.0224609 -19.707 16.0146 -35.7031 35.7197 -35.7305h280.561c19.7051 0.0273438 35.6973 16.0234 35.7197 35.7305zM432 128
c17.6611 0 32 14.3389 32 32s-14.3389 32 -32 32h-352c-17.6611 0 -32 -14.3389 -32 -32s14.3389 -32 32 -32h352z" />
    <glyph glyph-name="hard-hat" unicode="&#xf807;" 
d="M480 128c17.6611 0 32 -14.3389 32 -32v-64c0 -17.6611 -14.3389 -32 -32 -32h-448c-17.6611 0 -32 14.3389 -32 32v64c0 17.6611 14.3389 32 32 32c0 101.46 67.4902 187 160 214.6v25.4004c0 8.83105 7.16895 16 16 16h96c8.83105 0 16 -7.16895 16 -16v-25.4004
c92.5 -27.5996 160 -113.14 160 -214.6zM172.16 282.71c-54.9453 -29.8018 -92.1143 -87.8721 -92.1602 -154.71h352c-0.0458984 66.8379 -37.2148 124.908 -92.1602 154.71l-17.7803 -81.2695c-1.17676 -5.38965 -5.97949 -9.43848 -11.7197 -9.44043h-10.3398
c-6.62305 0 -12 5.37695 -12 12v132h-64v-132c0 -6.62305 -5.37695 -12 -12 -12h-10.3398c-5.74023 0.00195312 -10.543 4.05078 -11.7197 9.44043zM464 48v32h-416v-32h416z" />
    <glyph glyph-name="head-side-brain" unicode="&#xf808;" 
d="M509.21 173c1.76367 -3.9668 2.75879 -8.38281 2.75879 -13c0 -17.6514 -14.3213 -31.9834 -31.9688 -32h-32v-64c0 -35.3223 -28.6777 -64 -64 -64h-32v-48c0 -8.83105 -7.16895 -16 -16 -16h-16c-8.83105 0 -16 7.16895 -16 16v96h80c8.83105 0 16 7.16895 16 16v112
h56.2598c-6.13965 16.21 -12.4502 34.8096 -19 54.1299c-12.3193 36.3301 -29.1797 86.0898 -40.3799 102c-28.9678 41.1143 -76.7148 67.8486 -130.78 67.8701h-67.0996c-55.8896 0 -109.8 -28.7803 -135.14 -78.5801c-30.9199 -60.7803 -14.75 -130.42 32.1396 -172.5
l16 -14.3096v-182.61c0 -8.83105 -7.16895 -16 -16 -16h-16c-8.83105 0 -16 7.16895 -16 16v161.18c-39.3164 35.0479 -64.0078 85.9229 -64.0078 142.685c0 2.54004 0.0498047 5.06934 0.147461 7.58594c3.98047 104.47 95.3301 184.55 199.86 184.55h66.0898
c70.3066 0 132.397 -34.7715 170.04 -88.25c24.6396 -35.0195 52.1396 -139.63 73.0801 -186.75zM313.6 256h-42.1299c2.3252 -4.83887 3.67188 -10.29 3.73047 -16c0 -21.1934 -17.207 -38.4004 -38.4004 -38.4004c-4.49121 0.116211 -8.82617 1.03027 -12.7998 2.58008
v-44.1797h-51.2002v44.1797c-3.97363 -1.5498 -8.30859 -2.46387 -12.7998 -2.58008c-21.1934 0 -38.4004 17.207 -38.4004 38.4004c0 0.879883 0.450195 1.62012 0.510742 2.48047c-15.1104 5.17969 -26.1104 19.0791 -26.1104 35.9199
c0 21.1934 17.2061 38.3994 38.4004 38.3994c0 21.1934 17.2061 38.4004 38.3994 38.4004c7.08984 0 13.3799 -2.4502 19.0898 -5.81055c6.77051 10.9307 18.3105 18.6104 32.1104 18.6104s25.3496 -7.67969 32.1201 -18.6104
c5.7002 3.36035 11.9795 5.81055 19.0801 5.81055c16.5713 -0.0800781 30.6475 -10.7549 35.7998 -25.6006h2.59961c21.21 0 38.4004 -16.4795 38.4004 -36.7998c0 -20.3193 -17.1904 -36.7998 -38.4004 -36.7998z" />
    <glyph glyph-name="head-side-medical" unicode="&#xf809;" 
d="M336 232c0 -4.41504 -3.58496 -8 -8 -8h-56v-56c0 -4.41504 -3.58496 -8 -8 -8h-48c-4.41504 0 -8 3.58496 -8 8v56h-56c-4.41504 0 -8 3.58496 -8 8v48c0 4.41504 3.58496 8 8 8h56v56c0 4.41504 3.58496 8 8 8h48c4.41504 0 8 -3.58496 8 -8v-56h56
c4.41504 0 8 -3.58496 8 -8v-48zM509.21 173c1.76367 -3.9668 2.75879 -8.38281 2.75879 -13c0 -17.6514 -14.3213 -31.9834 -31.9688 -32h-32v-64c0 -35.3223 -28.6777 -64 -64 -64h-32v-48c0 -8.83105 -7.16895 -16 -16 -16h-16c-8.83105 0 -16 7.16895 -16 16v96h80
c8.83105 0 16 7.16895 16 16v112h56.2598c-6.13965 16.21 -12.4502 34.8096 -19 54.1299c-12.3193 36.3301 -29.1797 86.0898 -40.3799 102c-28.9678 41.1143 -76.7148 67.8486 -130.78 67.8701h-67.0996c-55.8896 0 -109.8 -28.7803 -135.14 -78.5801
c-30.9199 -60.7803 -14.75 -130.42 32.1396 -172.5l16 -14.3096v-182.61c0 -8.83105 -7.16895 -16 -16 -16h-16c-8.83105 0 -16 7.16895 -16 16v161.18c-39.3164 35.0479 -64.0078 85.9229 -64.0078 142.685c0 2.54004 0.0498047 5.06934 0.147461 7.58594
c3.98047 104.47 95.3301 184.55 199.86 184.55h66.0898c70.3066 0 132.397 -34.7715 170.04 -88.25c24.6396 -35.0195 52.1396 -139.63 73.0801 -186.75z" />
    <glyph glyph-name="home-alt" unicode="&#xf80a;" horiz-adv-x="576" 
d="M570.24 200.59c3.53906 -2.93555 5.78027 -7.37109 5.78027 -12.3242c0 -3.90625 -1.40234 -7.48633 -3.73047 -10.2656l-10.2305 -12.29c-2.93555 -3.50488 -7.34961 -5.72168 -12.2754 -5.72168c-3.90039 0 -7.47656 1.39844 -10.2539 3.72168l-27.5303 22.6201
v-186.57c-0.169922 -17.5312 -14.4375 -31.7227 -32 -31.7598h-128c-17.6387 0.0498047 -31.9502 14.3613 -32 32v104h-64v-104c-0.0498047 -17.6387 -14.3613 -31.9502 -32 -32h-128c-17.6387 0.0498047 -31.9502 14.3613 -32 32v186.31l-27.4697 -22.5596
c-2.77832 -2.32324 -6.35938 -3.73535 -10.2598 -3.73535c-4.92578 0 -9.33496 2.23047 -12.2705 5.73535l-10.2402 12.2998c-2.3252 2.77832 -3.74023 6.3623 -3.74023 10.2656c0 4.92773 2.23242 9.33887 5.74023 12.2744l246.37 202.41
c9.71875 8.0918 22.2822 12.9609 35.9043 12.9609c13.623 0 26.1172 -4.86914 35.8359 -12.9609zM463.85 16l0.150391 209.79l-176 144.56l-176 -144.619v-209.73h96v104c0.0498047 17.6387 14.3613 31.9502 32 32h96c17.6387 -0.0498047 31.9502 -14.3613 32 -32v-104
h95.8496z" />
    <glyph glyph-name="home-lg" unicode="&#xf80b;" horiz-adv-x="576" 
d="M570.24 232.58c3.53613 -2.93555 5.77539 -7.36914 5.77539 -12.3203c0 -3.90332 -1.40039 -7.48145 -3.72559 -10.2598l-10.2598 -12.2998c-2.93652 -3.50586 -7.35059 -5.72168 -12.2754 -5.72168c-3.90039 0 -7.47754 1.39844 -10.2549 3.72168l-27.5 22.5898v-266.29
c0 -8.83105 -7.16895 -16 -16 -16h-416.21c-8.84473 0.0166016 -16.0293 7.16895 -16.0996 16v208h0.30957v58.29l-27.4697 -22.5498c-2.77832 -2.32324 -6.35938 -3.73633 -10.2598 -3.73633c-4.92578 0 -9.33496 2.23047 -12.2705 5.73633l-10.2402 12.2998
c-2.3252 2.77832 -3.74023 6.3623 -3.74023 10.2656c0 4.92773 2.23242 9.33789 5.74023 12.2744l246.37 202.42c9.71387 8.10254 22.2783 12.9795 35.9043 12.9795s26.1221 -4.87695 35.8359 -12.9795l140.13 -115.12v56.4102
c0.15332 4.24414 3.62207 7.6543 7.88965 7.70996h32c4.41602 0 8 -3.58496 8 -8v-95.4697zM464 224v33.7305l-176 144.619l-176 -144.58v-4l-0.30957 -0.25v-269.52h112.31v144c0 17.6611 14.3389 32 32 32h64c17.6611 0 32 -14.3389 32 -32v-144h111.79v240h0.209961z" />
    <glyph glyph-name="home-lg-alt" unicode="&#xf80c;" horiz-adv-x="576" 
d="M570.24 232.58c3.53613 -2.93555 5.77539 -7.36914 5.77539 -12.3203c0 -3.90332 -1.40039 -7.48145 -3.72559 -10.2598l-10.2598 -12.2998c-2.93652 -3.50586 -7.35059 -5.72168 -12.2754 -5.72168c-3.90039 0 -7.47754 1.39844 -10.2549 3.72168l-27.5 22.5898v-266.29
c0 -8.83105 -7.16895 -16 -16 -16h-416.21c-8.84473 0.0166016 -16.0293 7.16895 -16.0996 16v208h0.30957v58.29l-27.4697 -22.5498c-2.77832 -2.32324 -6.35938 -3.73633 -10.2598 -3.73633c-4.92578 0 -9.33496 2.23047 -12.2705 5.73633l-10.2402 12.2998
c-2.3252 2.77832 -3.74023 6.3623 -3.74023 10.2656c0 4.92773 2.23242 9.33789 5.74023 12.2744l246.36 202.42c9.71484 8.10449 22.2803 12.9834 35.9092 12.9834c13.6279 0 26.126 -4.87891 35.8408 -12.9834zM464 224v33.7305l-176 144.619l-176 -144.58v-4
l-0.30957 -0.25v-269.52h112.31v144c0 17.6611 14.3389 32 32 32h64c17.6611 0 32 -14.3389 32 -32v-144h111.79v240h0.209961z" />
    <glyph glyph-name="hospitals" unicode="&#xf80e;" horiz-adv-x="640" 
d="M192 304v-26c0 -3.31152 -2.68848 -6 -6 -6h-20c-3.31152 0 -6 2.68848 -6 6v26h-26c-3.31152 0 -6 2.68848 -6 6v20c0 3.31152 2.68848 6 6 6h26v26c0 3.31152 2.68848 6 6 6h20c3.31152 0 6 -2.68848 6 -6v-26h26c3.31152 0 6 -2.68848 6 -6v-20
c0 -3.31152 -2.68848 -6 -6 -6h-26zM436 32c6.62305 0 12 -5.37695 12 -12v-40c0 -6.62305 -5.37695 -12 -12 -12h-40c-6.62305 0 -12 5.37695 -12 12v40c0 6.62305 5.37695 12 12 12h40zM244 128c6.62305 0 12 -5.37695 12 -12v-40c0 -6.62305 -5.37695 -12 -12 -12h-40
c-6.62305 0 -12 5.37695 -12 12v40c0 6.62305 5.37695 12 12 12h40zM244 224c6.62305 0 12 -5.37695 12 -12v-40c0 -6.62305 -5.37695 -12 -12 -12h-40c-6.62305 0 -12 5.37695 -12 12v40c0 6.62305 5.37695 12 12 12h40zM148 32c6.62305 0 12 -5.37695 12 -12v-40
c0 -6.62305 -5.37695 -12 -12 -12h-40c-6.62305 0 -12 5.37695 -12 12v40c0 6.62305 5.37695 12 12 12h40zM148 224c6.62305 0 12 -5.37695 12 -12v-40c0 -6.62305 -5.37695 -12 -12 -12h-40c-6.62305 0 -12 5.37695 -12 12v40c0 6.62305 5.37695 12 12 12h40zM148 128
c6.62305 0 12 -5.37695 12 -12v-40c0 -6.62305 -5.37695 -12 -12 -12h-40c-6.62305 0 -12 5.37695 -12 12v40c0 6.62305 5.37695 12 12 12h40zM244 32c6.62305 0 12 -5.37695 12 -12v-40c0 -6.62305 -5.37695 -12 -12 -12h-40c-6.62305 0 -12 5.37695 -12 12v40
c0 6.62305 5.37695 12 12 12h40zM532 224c6.62305 0 12 -5.37695 12 -12v-40c0 -6.62305 -5.37695 -12 -12 -12h-40c-6.62305 0 -12 5.37695 -12 12v40c0 6.62305 5.37695 12 12 12h40zM532 128c6.62305 0 12 -5.37695 12 -12v-40c0 -6.62305 -5.37695 -12 -12 -12h-40
c-6.62305 0 -12 5.37695 -12 12v40c0 6.62305 5.37695 12 12 12h40zM608 352c17.6611 0 32 -14.3389 32 -32v-368c0 -8.83105 -7.16895 -16 -16 -16h-16c-8.83105 0 -16 7.16895 -16 16v352h-48v96h-160v-96h-40v-352c0 -8.83105 -7.16895 -16 -16 -16h-16
c-8.83105 0 -16 7.16895 -16 16v352h-40v96h-160v-96h-48v-352c0 -8.83105 -7.16895 -16 -16 -16h-16c-8.83105 0 -16 7.16895 -16 16v368c0 17.6611 14.3389 32 32 32h16v64c0 17.6611 14.3389 32 32 32h192c17.6611 0 32 -14.3389 32 -32v-64h32v64
c0 17.6611 14.3389 32 32 32h192c17.6611 0 32 -14.3389 32 -32v-64h16zM532 32c6.62305 0 12 -5.37695 12 -12v-40c0 -6.62305 -5.37695 -12 -12 -12h-40c-6.62305 0 -12 5.37695 -12 12v40c0 6.62305 5.37695 12 12 12h40zM436 128c6.62305 0 12 -5.37695 12 -12v-40
c0 -6.62305 -5.37695 -12 -12 -12h-40c-6.62305 0 -12 5.37695 -12 12v40c0 6.62305 5.37695 12 12 12h40zM436 224c6.62305 0 12 -5.37695 12 -12v-40c0 -6.62305 -5.37695 -12 -12 -12h-40c-6.62305 0 -12 5.37695 -12 12v40c0 6.62305 5.37695 12 12 12h40zM480 304v-26
c0 -3.31152 -2.68848 -6 -6 -6h-20c-3.31152 0 -6 2.68848 -6 6v26h-26c-3.31152 0 -6 2.68848 -6 6v20c0 3.31152 2.68848 6 6 6h26v26c0 3.31152 2.68848 6 6 6h20c3.31152 0 6 -2.68848 6 -6v-26h26c3.31152 0 6 -2.68848 6 -6v-20c0 -3.31152 -2.68848 -6 -6 -6h-26z
" />
    <glyph glyph-name="hotdog" unicode="&#xf80f;" 
d="M484.05 261.37l2.86035 -2.88965c31.9697 -31.9502 33.4697 -82.4609 3.37012 -112.591l-188.221 -188.199c-13.4756 -13.4102 -32.0488 -21.6934 -52.543 -21.6934c-0.212891 0 -0.424805 0.000976562 -0.636719 0.00292969
c-21.8203 0 -43.4395 9.13965 -59.3496 25.1201l-2.87988 2.87988c-20.5205 -17.8496 -46.1904 -28 -73.6504 -28c-62.3662 0 -113 50.6338 -113 113c0 27.4404 10.1396 53.1104 28 73.6299l-2.94043 2.88965c-31.9697 31.9502 -33.4697 82.4805 -3.36914 112.591
l188.25 188.199c13.4756 13.4102 32.0488 21.6934 52.543 21.6934c0.212891 0 0.424805 -0.000976562 0.636719 -0.00292969c21.8203 0 43.4395 -9.13965 59.3496 -25.1201l2.87988 -2.87988c20.5303 17.8496 46.2002 28 73.6504 28c62.3662 0 113 -50.6338 113 -113
c0 -27.4404 -10.1396 -53.1104 -27.9502 -73.6299zM55.6201 204.17c-10.1396 -10.1699 -12.0098 -29.3301 5.70996 -47.0498l229.51 229.54c-17.6797 17.7197 -36.8203 15.9297 -47 5.71973zM456.38 179.83c10.1396 10.1699 12.0098 29.3301 -5.70996 47.0498
l-229.51 -229.54c17.6797 -17.7197 36.8203 -15.9199 47 -5.71973zM445 289c11.7754 11.7754 19.0449 28.0566 19.0449 46.0088c0 35.9043 -29.1494 65.0537 -65.0537 65.0537c-17.9521 0 -34.2158 -7.28711 -45.9912 -19.0625l-286 -286
c-11.7754 -11.7754 -19.0449 -28.0566 -19.0449 -46.0088c0 -35.9043 29.1494 -65.0537 65.0537 -65.0537c17.9521 0 34.2158 7.28711 45.9912 19.0625zM400 336c2.87012 2.72656 6.75391 4.39551 11.0205 4.39551c8.83105 0 16 -7.16895 16 -16
c0 -4.2666 -1.67383 -8.14551 -4.40039 -11.0156c-18.3398 -18.3301 -35.6201 -20.4297 -49.5605 -22.1104c-8.36914 -1.01953 -38.6094 -1.97949 -43.7197 -43.7197c-8.12988 -68.3594 -65.8994 -70.9395 -71.6201 -71.6299
c-41.7002 -5 -42.5596 -35.3799 -43.5596 -43.5303c-7.99023 -68.2793 -65.79 -70.8193 -71.4697 -71.5c-11.75 -1.40918 -20.2207 -2.41992 -30.6904 -12.8896c-2.86133 -2.67871 -6.70996 -4.31543 -10.9346 -4.31543c-8.83105 0 -16 7.16992 -16 16
c0 4.22266 1.63867 8.06445 4.31445 10.9258c18.3105 18.2793 35.5898 20.3398 49.5 22c41.6104 4.97949 42.5303 35.1895 43.5303 43.5098c7.99023 68.2998 65.8701 70.8604 71.5 71.5303c8.42969 1.00977 38.5801 1.95996 43.6797 43.6797
c8.14062 68.3896 66.0498 70.9902 71.6602 71.6699c11.75 1.46973 20.25 2.48047 30.75 13z" />
    <glyph glyph-name="island-tropical" unicode="&#xf811;" horiz-adv-x="448" 
d="M336.53 416c56.4697 0 103.16 -35.4297 111.29 -81.6396c0.104492 -0.649414 0.163086 -1.30371 0.163086 -1.98242c0 -6.83203 -5.54785 -12.3799 -12.3799 -12.3799c-0.0683594 0 -0.135742 0.000976562 -0.203125 0.00195312h-35.4004l-16 32l-16 -32h-72.0996
c1.29004 -11.4697 12.6094 -120 -8.52051 -228.33c56.0898 -14.21 97.6201 -65.04 96.6201 -125.79c-0.290039 -16.8799 -15.1602 -29.8799 -32 -29.8799h-320c-16.8604 0 -31.7197 13.0703 -32 29.9199c-0.0107422 0.6875 0 1.33984 0 2.03027
c0 70.6445 57.3545 128 128 128h21.6201c18.6895 45.7803 45.2295 122.33 51 199l-66.6504 -68.6699c-1.48242 -1.41211 -3.48926 -2.28223 -5.69629 -2.28223c-2.38477 0 -4.53516 1.01367 -6.04297 2.63184c-26.6807 29.7305 -29.9404 61.4199 -21.7607 89.3203
c3.08008 10.5098 8.26074 20.54 14.5303 30.1396l-19 37.9102l-16 -32h-33.5996c-9 0 -15.6904 6.91016 -14.1904 14.3604c9.28027 46.21 62.6904 81.6396 127.18 81.6396c48.5 0 90.2207 -20.2803 112.141 -49.8701c18.8018 11.2949 40.9326 17.8711 64.4443 17.8711
c0.185547 0 0.370117 0 0.555664 -0.000976562zM249.06 297.84c-4.70996 -75.5801 -28.3691 -150.84 -47.8896 -201.84h37.6797c16.6904 81.25 13.5703 165.88 10.8701 201.73zM334.39 -16c-7.49219 36.4414 -39.7568 63.9482 -78.3896 64h-128
c-38.6328 -0.0517578 -70.8975 -27.5586 -78.3896 -64h284.779z" />
    <glyph glyph-name="laptop-medical" unicode="&#xf812;" horiz-adv-x="640" 
d="M624 96c8.83105 0 16 -7.16895 16 -16v-48c0 -52.7998 -43.2002 -96 -96 -96h-448c-52.7998 0 -96 43.2002 -96 96v48c0 8.83105 7.16895 16 16 16h48v288c0.104492 35.2744 28.7256 63.8955 64 64h384c35.2744 -0.104492 63.8955 -28.7256 64 -64v-288h48zM112 384v-288
h416v288c-0.118164 8.77539 -7.22461 15.8818 -16 16h-384c-8.77539 -0.118164 -15.8818 -7.22461 -16 -16zM592 32v16h-180.9c-5.58008 -9.38965 -15.3799 -16 -27.0996 -16h-128c-11.7197 0 -21.5303 6.61035 -27.0996 16h-180.9v-16
c0.0273438 -26.4795 21.5205 -47.9727 48 -48h448c26.4795 0.0273438 47.9727 21.5205 48 48zM408 288c4.41504 0 8 -3.58496 8 -8v-48c0 -4.41504 -3.58496 -8 -8 -8h-56v-56c0 -4.41504 -3.58496 -8 -8 -8h-48c-4.41504 0 -8 3.58496 -8 8v56h-56
c-4.41504 0 -8 3.58496 -8 8v48c0 4.41504 3.58496 8 8 8h56v56c0 4.41504 3.58496 8 8 8h48c4.41504 0 8 -3.58496 8 -8v-56h56z" />
    <glyph glyph-name="meat" unicode="&#xf814;" 
d="M444 379.48c66.71 -66.6709 86.7598 -154.9 49.3301 -204.32c-9.37012 -16.6201 -108.561 -111.16 -190.46 -111.16h-73l-11.7705 -11.7598c-1.71973 -1.75 -1.15918 -5.25 -0.15918 -7.75c3.625 -9.07422 5.64062 -19.0303 5.64062 -29.3916
c0 -43.7061 -35.4834 -79.1904 -79.1895 -79.1904c-21.877 0 -41.6934 8.89062 -56.0312 23.252c-11.4502 11.4912 -19.2607 26.6924 -21.5703 43.5498c-16.8662 2.3125 -32.0752 10.1309 -43.5703 21.5898c-14.3125 14.3311 -23.1113 34.0928 -23.1113 55.9268
c0 43.7061 35.4834 79.1904 79.1895 79.1904c10.3301 0 20.2012 -1.98242 29.252 -5.58691c1.99023 -0.830078 5.82031 -1.70996 7.75 0.169922l11.8506 11.8799v72.6699c0 69.8203 63.54 144.92 102.26 183.601c6.76953 6.79004 30.1201 25.8496 68.7695 25.8496
c45.9307 0 100.271 -24.0498 144.82 -68.5195zM302.88 112c22.6904 0 51.46 11.6201 82.5098 32.1904c-38.6494 8.51953 -78.8301 31.2695 -112.189 64.5996c-33.3604 33.3301 -56.0801 73.1396 -64.7002 112.45c-20.5703 -30.9902 -32.3301 -59.9004 -32.3301 -82.6904
v-92.5498l-25.9004 -25.9004c-9.52637 -9.38281 -22.6025 -15.1699 -37.0176 -15.1699h-0.251953c-7.93848 0.0244141 -15.5596 1.6084 -22.5 4.41992c-3.51855 1.38086 -7.36426 2.15137 -11.3701 2.15137c-17.1807 0 -31.1299 -13.9492 -31.1299 -31.1299v-0.0214844
c0 -12.0498 8 -27.6299 25.5195 -30.1094l35.8008 -5.0498l5 -35.8105c2.46973 -17.5596 18.1094 -25.3799 30.1094 -25.3799c0.0390625 0 0.0615234 0.0185547 0.100586 0.0185547c17.1475 0 31.0693 13.9219 31.0693 31.0693
c0 4.08984 -0.791016 7.99512 -2.22949 11.5723c-8.58984 21.4697 -4.45996 44.2803 10.7803 59.5195l25.8496 25.8203h92.8799zM452.7 200.09c24.2998 24.2598 11.1797 91.6201 -42.7002 145.45c-55.8604 55.7803 -122.18 66.0898 -145.62 42.6699
c-24.5703 -24.5498 -11.04 -91.7598 42.71 -145.45c55.8398 -55.79 122.17 -66.0898 145.61 -42.6699zM331.89 320.77c9.81055 9.80078 29.7002 5.84082 44.4199 -8.86914c14.7207 -14.71 18.6904 -34.5605 8.88086 -44.3701
c-9.81055 -9.81055 -29.7002 -5.83008 -44.4209 8.87012c-14.7197 14.6992 -18.6895 34.5693 -8.87988 44.3691z" />
    <glyph glyph-name="pager" unicode="&#xf815;" 
d="M304 144c8.83105 0 16 -7.16895 16 -16v-16c0 -8.83105 -7.16895 -16 -16 -16h-80v48h80zM96 128c0 8.83105 7.16895 16 16 16h80v-48h-80c-8.83105 0 -16 7.16895 -16 16v16zM392 288c13.2461 0 24 -10.7539 24 -24v-48c0 -13.2461 -10.7539 -24 -24 -24h-272
c-13.2461 0 -24 10.7539 -24 24v48c0 13.2461 10.7539 24 24 24h272zM448 384c35.3223 0 64 -28.6777 64 -64v-256c0 -35.3223 -28.6777 -64 -64 -64h-384c-35.3223 0 -64 28.6777 -64 64v256c0 35.3223 28.6777 64 64 64h384zM464 64v256c0 8.83105 -7.16895 16 -16 16
h-384c-8.83105 0 -16 -7.16895 -16 -16v-256c0 -8.83105 7.16895 -16 16 -16h384c8.83105 0 16 7.16895 16 16z" />
    <glyph glyph-name="pepper-hot" unicode="&#xf816;" 
d="M456.54 305c34.1855 -32.5146 55.4609 -78.4238 55.4609 -129.281c0 -0.149414 -0.000976562 -0.298828 -0.000976562 -0.449219c0 -24.71 -6.96973 -47.8594 -9.7002 -58.4492c-1.66504 -6.43457 -7.52441 -11.1904 -14.4756 -11.1904
c-3.3623 0 -6.4668 1.11328 -8.96387 2.99023l-10.6201 8c-59.6006 -81.6201 -198.66 -177.62 -396.24 -180.62c-0.0224609 0 0.00585938 0.000976562 -0.0175781 0.000976562c-39.7373 0 -72 32.2617 -72 72c0 38.584 30.416 70.1201 68.5576 71.9189
c27.9297 3.2002 91.9004 11.3105 132.3 125.86c10.3105 29.2197 21.3906 60.2197 41.2197 84.9697c-4.89746 3.02344 -8.16504 8.41797 -8.16504 14.5918c0 6.12305 3.21387 11.501 8.0459 14.5381c6.0293 3.79004 43.6592 32.1201 98.3994 32.1201
c27.8438 -0.0361328 54.2695 -7.02637 77.3301 -19.1699c23.9199 41.5898 12.3604 68.8799 5.06055 79.7803c-0.838867 1.25488 -1.33301 2.77148 -1.33301 4.39258c0 2.19043 0.891602 4.17383 2.33301 5.60742l23 23c1.44141 1.47363 3.4502 2.39258 5.67285 2.39258
c2.47168 0 4.67969 -1.13086 6.13672 -2.90332c19.46 -24.5 36.3799 -76.46 -2 -140.1zM340.34 304c-8.33594 -0.000976562 -16.3896 -0.900391 -24.2197 -2.59961l36.1494 -22.29c9.13672 -5.6377 15.1982 -15.6865 15.1982 -27.2002
c0 -1.20703 -0.0673828 -2.39746 -0.198242 -3.57031l-4.12988 -37.1299l39 4.33008c1.17188 0.129883 2.35645 0.180664 3.5625 0.180664c7.20508 0 13.8564 -2.38574 19.208 -6.41113l39 -29.3096c-2.35059 68.7803 -56.8799 124 -123.57 124zM72 -16
c187.26 2.87988 310.09 95.6104 357.91 161.45l-28.7197 21.6094l-52.5908 -5.84961c-1.17188 -0.129883 -2.33008 -0.228516 -3.53711 -0.228516c-17.6611 0 -32 14.3379 -32 32c0 1.20605 0.0673828 2.39648 0.197266 3.56836l5.20996 47l-34.8096 21.4902
c-16.8604 -17.5498 -26.3301 -43.4297 -37.54 -75.2305c-51.46 -145.859 -143.66 -154.3 -174.12 -157.81c-13.2461 0 -24 -10.7539 -24 -24s10.7539 -24 24 -24z" />
    <glyph glyph-name="pizza" unicode="&#xf817;" horiz-adv-x="576" 
d="M523.2 347.87c33.0371 -43.1758 52.6738 -97.5488 52.6738 -156.061c0 -58.5127 -19.6367 -112.475 -52.6738 -155.649c-2.81738 -3.65625 -7.22852 -6.00098 -12.1963 -6.00098c-0.0546875 0 -0.109375 0 -0.164062 0.000976562
c-0.00976562 0 -0.0214844 -0.00195312 -0.03125 -0.00195312c-4.51562 0 -8.6084 1.82715 -11.5781 4.78223l-157.061 157.06l157.061 157.09c2.96973 2.95508 7.06445 4.78027 11.5801 4.78027h0.0292969c0.0498047 0 0.0898438 0.0126953 0.139648 0.0126953
c4.97168 0 9.39746 -2.35645 12.2207 -6.0127zM455.88 146.17c5.14746 14.3096 8.0332 29.7773 8.12012 45.8301c0 16.0801 -3.37988 31.2197 -8.29004 45.6602l-45.6602 -45.6602zM505.11 96.9404c14.5674 28.4639 22.7881 61.1211 22.7881 95.2676
s-8.2207 66.3877 -22.7881 94.8516l-24.3701 -24.3691c9.74609 -21.5762 15.1719 -45.7959 15.1719 -70.9912c0 -25.1104 -5.38867 -48.9717 -15.0723 -70.4893zM256.45 192l169.149 -169.15c6.45996 -6.45996 6.4502 -17.3896 -0.419922 -23.3896
c-44.9277 -39.4697 -103.939 -63.46 -168.384 -63.46h-0.345703c-81.0703 0 -162.15 38.2803 -213.8 114.82c-56.8701 84.3398 -56.8701 198.04 0 282.34c51.6396 76.5596 132.72 114.84 213.81 114.84c0.113281 0 0.342773 -0.046875 0.456055 -0.046875
c64.4424 0 123.337 -23.9434 168.264 -63.4131c6.87012 -6.03027 6.87988 -16.9297 0.419922 -23.3896zM188.57 192l129.43 129.38c-18.6592 9.24219 -39.7998 14.5479 -62 14.6201c-79.4004 0 -144 -64.5996 -144 -144s64.5996 -144 144 -144
c22.2021 0.0673828 43.3428 5.37305 62 14.6201zM256.45 -16c0.0361328 0 0.291992 0.130859 0.329102 0.130859c39.9043 0 77.1973 11.2666 108.871 30.7891l-23.8008 23.7998c-25.291 -14.3672 -54.7139 -22.6943 -85.8496 -22.7197c-97.1367 0 -176 78.8633 -176 176
s78.8633 176 176 176c31.1357 -0.0253906 60.5586 -8.35254 85.8496 -22.7197l23.8008 23.7998c-31.6729 19.5225 -69.1846 30.9199 -109.088 30.9199h-0.102539c-70.46 0 -133.86 -34.1504 -174.01 -93.6904c-46.1406 -68.3799 -46.1406 -160.26 0 -228.64
c40.1602 -59.5303 103.58 -93.6699 174 -93.6699zM216 304c13.2461 0 24 -10.7539 24 -24s-10.7539 -24 -24 -24s-24 10.7539 -24 24s10.7539 24 24 24zM176 120c0 13.2461 10.7539 24 24 24s24 -10.7539 24 -24s-10.7539 -24 -24 -24s-24 10.7539 -24 24z" />
    <glyph glyph-name="pizza-slice" unicode="&#xf818;" 
d="M158.87 447.85c181.91 -17.1699 332.02 -164.93 352.899 -345.689c1.87012 -16.2197 -7.89941 -31.54 -23.6191 -35.8906l-467.601 -129.659c-1.40137 -0.391602 -2.875 -0.605469 -4.39941 -0.610352c-8.91406 0.0585938 -16.1328 7.30664 -16.1328 16.2344
c0 1.42871 0.185547 2.81445 0.532227 4.13574l122.99 467.36c3.7793 13.9707 16.5439 24.2715 31.7031 24.2715c0.123047 0 0.245117 -0.000976562 0.367188 -0.00195312c1.08008 0 2.16992 -0.0498047 3.25977 -0.150391zM61.0498 -2.34961l310.09 85.9795
c-22.2295 121.11 -106.26 203.96 -228.39 224.5zM417.44 96.4697l44.9893 12.4707c-22.9297 148.42 -147.04 269.97 -295.819 289.729l-11.6104 -44.1201c137.6 -25.0195 235.5 -121.55 262.44 -258.08zM192 256c17.6611 0 32 -14.3389 32 -32s-14.3389 -32 -32 -32
s-32 14.3389 -32 32s14.3389 32 32 32zM160 128c17.6611 0 32 -14.3389 32 -32s-14.3389 -32 -32 -32s-32 14.3389 -32 32s14.3389 32 32 32zM256 128c0 17.6611 14.3389 32 32 32s32 -14.3389 32 -32s-14.3389 -32 -32 -32s-32 14.3389 -32 32z" />
    <glyph glyph-name="rings-wedding" unicode="&#xf81b;" 
d="M371.94 284.3c79.9209 -16.6143 140.243 -87.6201 140.243 -172.439c0 -97.1367 -78.8633 -176 -176 -176c-55.5127 0 -105.057 25.7559 -137.323 65.96c-7.51074 -1.13086 -15.0537 -1.74609 -22.8604 -1.82031c-97.0723 0.0761719 -175.997 78.8242 -175.997 175.914
c0 71.9902 43.3174 133.944 105.287 161.196l-41.29 66.2295l55.4697 44.6602h113.061l55.4697 -44.6602l-41.3301 -66.1895c62.0352 -27.1357 105.372 -88.9619 105.372 -160.956c0 -52.2197 -22.8281 -99.1484 -59.042 -131.345c-13.8291 8.82812 -24.6611 21.6709 -31 37
c25.6201 23.4199 42 56.7803 42 94.1504c-0.113281 19.8467 -4.87988 38.751 -13.1504 55.4404c-48.3301 -18.2705 -82.8496 -64.7803 -82.8496 -119.44c0 -70.6455 57.3545 -128 128 -128s128 57.3545 128 128c0 49.4502 -28.4805 91.9502 -69.6299 113.3
c-4.66797 20.791 -12.3828 40.8574 -22.4297 59zM128 392.66l25.4697 -42.2598c7.41309 1.05371 14.666 1.59961 22.3682 1.59961c7.70312 0 15.2793 -0.545898 22.6924 -1.59961l25.4697 42.2598l-8.53027 7.33984h-78.9395zM48 176c0 -69.2197 55.3301 -125.45 124 -127.6
c-7.68945 19.6904 -11.9844 41.2041 -12 63.5996c0 70.4902 41.7197 130.49 101.6 158.49c-22.7295 20.5996 -52.5996 33.5098 -85.5996 33.5098c-70.6094 -0.0771484 -127.923 -57.3906 -128 -128z" />
    <glyph glyph-name="salad" unicode="&#xf81e;" 
d="M512 208c0 -12.5303 -2.41992 -24.3799 -5.83008 -35.8096c3.84961 -6.70996 6.36035 -14.1006 5.69043 -21.8604c-6.15039 -72.5996 -51 -136.11 -115.94 -166.11c-2.71973 -27.0498 -25.3799 -48.2197 -52.8203 -48.2197h-173.58
c-27.3398 0 -49.9395 21.0801 -52.7793 48c-65.29 29.8301 -110.42 93.4404 -116.601 166.34c-0.0859375 1.04688 -0.125977 2.08203 -0.125977 3.15039c0 9.99902 3.84082 19.1074 10.126 25.9297c5.24023 5.70996 12.25 8.90039 19.6406 10.71
c-3.15039 18.6699 -10.0898 36.5703 -19.0898 53.5703c-6.4502 12.1396 -11.5605 33.1396 -10.5605 49.1396c2.35742 46.6279 38.3271 84.5537 84.0801 90c6.98047 1.16016 18.79 2.28027 36.6699 -2.58984c17.1338 39.918 56.7051 67.9062 102.867 67.9062
s85.8389 -27.9883 102.973 -67.9062c12.3604 3.37012 23.9102 4.66016 36.6904 2.58984c35.6914 -4.34082 65.3945 -28.3799 77.7197 -60.9395c41.8701 -21.0801 70.8701 -63.9707 70.8701 -113.9zM383.91 288c-44.1533 0 -80.0498 -35.8467 -80.0498 -80
c0 -5.57031 1.12988 -10.79 2.26953 -16h155.59c1.14062 5.20996 2.28027 10.4297 2.28027 16c0 41.1602 -34 80 -80.0898 80zM215.8 352c-4.41504 0 -8 -3.58496 -8 -8v-152h32v152c0 4.41504 -3.58496 8 -8 8h-16zM74 282.34
c-1.45605 -1.44922 -2.35742 -3.45605 -2.35742 -5.6709c0 -2.21387 0.901367 -4.21973 2.35742 -5.66895l79.1299 -79h45.2803l-101.771 101.66c-1.44824 1.4502 -3.45117 2.34766 -5.66113 2.34766c-2.20898 0 -4.20996 -0.897461 -5.6582 -2.34766zM364 22.9502
c52.4502 19 90.3301 65.8496 98.7998 121.05h-413.6c8.5 -55.4199 46.5996 -102.31 99.3193 -121.19l15.9102 -5.68945v-27.4004c0 -3.16016 2.28027 -5.71973 5.08984 -5.71973h173.57c2.81055 0 5.10059 2.55957 5.10059 5.71973v27.5z" />
    <glyph glyph-name="sandwich" unicode="&#xf81f;" 
d="M497.61 200.7c8.03809 -0.813477 14.3438 -7.58887 14.3896 -15.8301v-16.0801c0 -9.62988 -8.51953 -16.9199 -18.0703 -16c-26.3193 2.5498 -42.2598 10.5195 -56.6201 17.7002c-10.9297 5.45996 -50.4395 28 -106.369 0c-12.96 -6.4707 -71.8008 -38.8506 -149.5 0
c-16.3105 8.14941 -53.8701 26.3994 -106.66 0c-14.3604 -7.18066 -30.3203 -15.1504 -56.7207 -17.7002c-9.5498 -0.879883 -18.0596 6.41016 -18.0596 16v16.0801c0.0458984 8.24121 6.35156 15.0166 14.3896 15.8301c16.9502 1.76953 26.9502 6.76953 38.9502 12.7695
c78.29 39.1406 136.74 6.39062 149.54 0c16.3701 -8.18945 53.9004 -26.3799 106.561 0c77.6992 38.8506 136.43 6.4707 149.369 0c11.9805 -6 21.9404 -10.9893 38.8008 -12.7695zM480 416c17.6611 0 32 -14.3389 32 -32v-96c0 -17.6611 -14.3389 -32 -32 -32h-448
c-17.6611 0 -32 14.3389 -32 32v96c0 17.6611 14.3389 32 32 32h448zM464 304v64h-416v-64h416zM480 128c17.6611 0 32 -14.3389 32 -32v-96c0 -17.6611 -14.3389 -32 -32 -32h-448c-17.6611 0 -32 14.3389 -32 32v96c0 17.6611 14.3389 32 32 32h448zM464 16v64h-40
l-72 -48l-72 48h-232v-64h416z" />
    <glyph glyph-name="sausage" unicode="&#xf820;" 
d="M447.83 378.17c37.29 -13.1699 64.1699 -48.3701 64.1699 -90.1699c0 -194.09 -157.91 -352 -352 -352c-41.7998 0 -77 26.8799 -90.1699 64.21l-45.6504 -15.21c-1.8252 -0.608398 -3.78125 -0.942383 -5.80957 -0.942383c-10.123 0 -18.3438 8.20605 -18.3701 18.3223
v59.2402c0.0185547 10.1172 8.24121 18.3223 18.3633 18.3223c2.03223 0 3.98828 -0.331055 5.81641 -0.942383l45.6504 -15.1699c13.1699 37.29 48.3701 64.1699 90.1699 64.1699c88.2197 0 160 71.7803 160 160c0 41.7998 26.8799 77 64.21 90.1699l-15.21 45.6504
c-0.611328 1.82812 -0.946289 3.78711 -0.946289 5.81934c0 10.1221 8.20898 18.3418 18.3262 18.3604h59.2402c10.1172 -0.0185547 18.3223 -8.24121 18.3223 -18.3633c0 -2.03223 -0.331055 -3.98828 -0.942383 -5.81641zM160 -16c167.63 0 304 136.37 304 304
c0 26.4922 -21.5078 48 -48 48s-48 -21.5078 -48 -48c0 -114.69 -93.3096 -208 -208 -208c-26.4922 0 -48 -21.5078 -48 -48s21.5078 -48 48 -48z" />
    <glyph glyph-name="shish-kebab" unicode="&#xf821;" 
d="M511.21 363.93c0.543945 -4.11816 0.766602 -8.31445 0.766602 -12.5801c0 -19.8975 -6.11133 -38.3799 -16.5566 -53.6699c-5.37012 -7.83984 -16.8203 -8.46973 -23.54 -1.75l-12.29 12.29c-5.21973 5.23047 -5.62012 13.1602 -1.91016 19.5498
c4.05176 7.02734 6.40234 15.1787 6.40234 23.8652c0 2.10938 -0.136719 4.1875 -0.402344 6.22559c-1.97949 15.4492 -10.9102 28.4492 -25.1299 36.4492c-6.62891 3.76758 -14.3916 5.91992 -22.5547 5.91992c-8.53906 0 -16.5322 -2.35449 -23.3652 -6.44922
c-25.6104 -15.1104 -29.2295 -43.9307 -19.6104 -63.3604c11.1904 -22.5801 7.63086 -47.9902 -9.08984 -64.7197l-24.2295 -24.2197l31.5801 -31.5908c12.8418 -12.8389 20.7891 -30.5938 20.7891 -50.1699s-7.94727 -37.3105 -20.7891 -50.1494l-31.7002 -31.7002
c-11.7148 -11.6465 -27.5791 -19.1865 -45.1104 -20.29c-1.10156 -17.5322 -8.6416 -33.3965 -20.29 -45.1104l-31.6992 -31.7002c-12.8398 -12.8418 -30.5938 -20.7891 -50.1699 -20.7891s-37.3115 7.94727 -50.1504 20.7891l-31.6699 31.6602l-72 -71.8896
c-2.80566 -2.81348 -6.68945 -4.55664 -10.9727 -4.55664s-8.16211 1.74316 -10.9678 4.55664l-12 12c-2.81348 2.80469 -4.55566 6.68848 -4.55566 10.9717s1.74219 8.16309 4.55566 10.9688l71.9404 71.8896l-31.71 31.7197
c-12.8418 12.8398 -20.79 30.5938 -20.79 50.1699s7.94824 37.3105 20.79 50.1504l31.7002 31.71c11.7197 11.6416 27.5869 19.1777 45.1191 20.2803c1.09277 17.5332 8.63086 33.3984 20.2803 45.1094l31.7002 31.71c12.8408 12.8398 30.5947 20.7861 50.1699 20.7861
s37.3096 -7.94629 50.1504 -20.7861l31.7998 -31.7998l24.2998 24.21c2.28027 2.33008 1.44043 6.56055 0 9.49023c-22.29 44.8799 -6.7998 97.8799 35.8604 124.59c14.5449 9.02051 31.8994 14.2285 50.2578 14.2285c17.3652 0 33.6504 -4.66016 47.6719 -12.7988
c26.3604 -15.5293 43.6396 -41.5 47.4199 -71.21zM240.21 46.4199c4.14062 4.15039 6.6709 9.88379 6.6709 16.2031c0 6.32031 -2.56055 12.0459 -6.70117 16.1973l-97.3193 97.3193c-4.15234 4.15234 -9.89355 6.72168 -16.2236 6.72168
s-12.0645 -2.56934 -16.2168 -6.72168l-31.7002 -31.6992c-4.15137 -4.15234 -6.7207 -9.89355 -6.7207 -16.2236s2.56934 -12.0645 6.7207 -16.2168l97.3506 -97.2803c4.15234 -4.15137 9.89258 -6.7207 16.2227 -6.7207s12.0645 2.56934 16.2168 6.7207zM337.31 143.52
c4.16309 4.1543 6.71191 9.90332 6.71191 16.2432c0 6.34082 -2.57812 12.083 -6.74121 16.2373l-97.29 97.2803c-4.15234 4.15137 -9.89355 6.7207 -16.2236 6.7207s-12.0645 -2.56934 -16.2168 -6.7207l-31.7002 -31.7002
c-4.15137 -4.15234 -6.7207 -9.89355 -6.7207 -16.2236c0 -6.3291 2.56934 -12.0645 6.7207 -16.2168l97.3203 -97.3193c4.15234 -4.15234 9.89355 -6.72168 16.2236 -6.72168c6.3291 0 12.0645 2.56934 16.2168 6.72168z" />
    <glyph glyph-name="sickle" unicode="&#xf822;" 
d="M511.54 288.15c0.294922 -1.49121 0.40918 -3.01367 0.40918 -4.59082c0 -13.0264 -10.5605 -23.6064 -23.5791 -23.6396c-7.71777 0.0185547 -14.5459 3.78711 -18.7598 9.59961c-12.7207 17.3604 -30 30.9902 -51 40.3604
c-13.9512 6.22754 -29.4883 9.76758 -45.7305 9.82031h-0.0195312c-6.5918 0 -13.04 -0.618164 -19.29 -1.7998c-53.1104 -10.1006 -91.0508 -51.4805 -98.5605 -100.74c-4.87988 -31.8105 3.54004 -62.6904 23.6602 -87.0898
c5.42969 -6.58984 5.67969 -16.2803 -0.320312 -22.2803l-13.7295 -13.71l14.46 -14.46c2.87891 -2.89355 4.65918 -6.88672 4.65918 -11.2871c0 -4.40137 -1.78027 -8.38867 -4.65918 -11.2832l-67.7002 -67.7002c-2.89355 -2.87891 -6.88672 -4.65918 -11.2871 -4.65918
s-8.38867 1.78027 -11.2832 4.65918l-22.5996 22.6006l-66.5996 -66.6006c-5.77832 -5.77734 -13.7666 -9.35254 -22.5752 -9.35254c-8.80762 0 -16.7871 3.5752 -22.5654 9.35254l-45.1299 45.1309c-5.77148 5.77832 -9.34375 13.7646 -9.34375 22.5693
s3.57227 16.7812 9.34375 22.5605l66.6006 66.5996l-22.5908 22.5996c-2.89648 2.89648 -4.68945 6.90137 -4.68945 11.3174s1.79297 8.41699 4.68945 11.3135l67.3809 67.3594c-2.4502 27.0303 -1 54.5703 4 77.4102c19.9492 91.7305 97.96 155.79 189.75 155.79
c131.189 0 186.279 -104.56 197.06 -159.85zM200.05 45.71l22.6201 22.6299l-90.5098 90.5098l-22.6299 -22.6299l34.1602 -34.1602l-89.2002 -89l22.5693 -22.5693l89.1104 89.0996zM372.89 367.57l0.0400391 -0.0507812
c15.6895 -0.0351562 30.8438 -2.36035 45.1699 -6.60938c-22.7295 21.6797 -55.8496 39.1602 -103.569 39.1602c-69.0898 -0.0107422 -127.88 -48.5605 -143 -118.09c-5.16992 -23.8701 -5.62988 -53.5303 -1.16992 -79.3301l2.89941 -16.75l44 -44.4902
c-7.32324 18.1611 -11.4268 37.9385 -11.4268 58.709c0 8.26074 0.637695 16.373 1.86719 24.291c10.75 70.5195 65.79 127 136.95 140.52c9.16602 1.73438 18.4961 2.64062 28.1631 2.64062h0.0761719z" />
    <glyph glyph-name="soup" unicode="&#xf823;" 
d="M303.06 301.5c-2.75586 17.0176 -10.8008 32.3604 -22.3994 44.0996c-21.8926 22.291 -36.6543 51.7773 -40.6006 84.4004c-1.19922 9.5 6.5 18 16.3008 18h16.3994c0.0537109 0.000976562 0.103516 -0.015625 0.157227 -0.015625
c8.10156 0 14.8145 -5.99316 15.9434 -13.7842c2.87891 -20.6689 12.4248 -39.3281 26.3994 -53.5c19.5078 -19.7441 32.7725 -45.8184 36.6006 -74.7002c1.2998 -9.5 -6.5 -18 -16.3008 -18h-16.5c-8.02148 0 -14.6934 5.84766 -16 13.5zM480 256
c17.6611 0 32 -14.3389 32 -32c0 -94.7002 -51.5596 -177.16 -128 -221.45v-34.5498c0 -17.6611 -14.3389 -32 -32 -32h-192c-17.6611 0 -32 14.3389 -32 32v34.5498c-76.4404 44.29 -128 126.75 -128 221.45c0 17.6611 14.3389 32 32 32h448zM336 30.2197
c69.4102 40.21 120.41 88.8506 127.38 177.78h-414.76c7.11035 -90.7002 59.8398 -138.65 127.38 -177.78v-46.2197h160v46.2197zM191.11 301.5c-2.75684 17.0176 -10.8018 32.3604 -22.4004 44.0996c-21.8916 22.291 -36.6543 51.7773 -40.5996 84.4004
c-0.0585938 0.560547 -0.0898438 1.11426 -0.0898438 1.69043c0 9.00195 7.30859 16.3096 16.3105 16.3096h0.0791016h16.3994c0.0537109 0.000976562 0.104492 -0.015625 0.157227 -0.015625c8.10156 0 14.8145 -5.99316 15.9434 -13.7842
c2.87891 -20.6689 12.4248 -39.3281 26.3994 -53.5c19.5088 -19.7441 32.7725 -45.8184 36.6006 -74.7002c1.2998 -9.5 -6.5 -18 -16.2998 -18h-16.5c-8.02246 0 -14.6943 5.84766 -16 13.5z" />
    <glyph glyph-name="stretcher" unicode="&#xf825;" horiz-adv-x="640" 
d="M600 336c22.0762 0 40 -17.9238 40 -40v-64c0 -22.0762 -17.9238 -40 -40 -40h-88.1201l-107.43 -94l46.9199 -41.0498c8.56836 4.42188 18.3457 6.9834 28.6299 7.0498c35.3223 0 64 -28.6777 64 -64s-28.6777 -64 -64 -64s-64 28.6777 -64 64
c0.0791016 7.28516 1.41211 14.3115 3.75977 20.8096l-51.7598 45.29l-51.7598 -45.29c2.34766 -6.49805 3.68066 -13.5244 3.75977 -20.8096c0 -35.3223 -28.6777 -64 -64 -64s-64 28.6777 -64 64s28.6777 64 64 64c10.2842 -0.0664062 20.0615 -2.62793 28.6299 -7.0498
l46.9102 41.0498l-107.43 94h-46.4805c-26.1582 0.00488281 -49.6533 11.3965 -65.79 29.5303l-101.56 117.16c-14.3398 14.9199 -14.0303 41.3096 3.16016 56.6494l47.8398 42.5098c7.05176 6.30957 16.3779 10.1631 26.5752 10.1631
c11.3682 0 21.6299 -4.76855 28.8945 -12.4131l86.25 -99.5996h397zM256 -16c8.83105 0 16 7.16895 16 16s-7.16895 16 -16 16s-16 -7.16895 -16 -16s7.16895 -16 16 -16zM480 16c-8.83105 0 -16 -7.16895 -16 -16s7.16895 -16 16 -16s16 7.16895 16 16s-7.16895 16 -16 16z
M368 129.9l71 62.0996h-142zM592 240v48h-411l-93.9102 108.57l-35.8701 -31.8799l96.6904 -111.49c7.32227 -8.11426 17.9141 -13.2002 29.6934 -13.2002h0.0263672h414.37z" />
    <glyph glyph-name="taco" unicode="&#xf826;" 
d="M208 160c8.83105 0 16 -7.16895 16 -16s-7.16895 -16 -16 -16s-16 7.16895 -16 16s7.16895 16 16 16zM144 96c8.83105 0 16 -7.16895 16 -16s-7.16895 -16 -16 -16s-16 7.16895 -16 16s7.16895 16 16 16zM511.45 40.3604
c4.40039 -35.0205 -20.4502 -72.3604 -59.9502 -72.3604h-391c-39.5 0 -64.3398 37.4102 -59.9502 72.3604c2.75488 21.3516 7.79395 42.4277 14.6807 62.1895c-2.68945 6.91797 -4.19824 14.4717 -4.2207 22.3301c0 9.5498 -0.649414 18.3701 -3.34961 27.7705
c-5.32031 18.2695 -12.54 43.29 -3 69.3496c12.8896 35.3604 47.1602 48.46 59.71 58c5.62988 16.2305 6.38965 55.04 35.4199 78.7402s64.9795 15.25 81.75 15.3994c11.21 9.02051 38.2197 41.8604 75.8799 41.8604c36.3301 0 59.1504 -30.7305 73.0205 -41.9004
c25.6396 -0.229492 54.6992 6.68066 81.75 -15.3994c28.7793 -23.4902 29.9395 -62.25 35.1992 -78.5898c11.9902 -9.36035 46.9102 -22.4707 59.9102 -58.1406c9.5498 -26.0996 2.32031 -51.1299 -3 -69.5801c-2.67969 -9.33984 -3.2998 -18.1992 -3.2998 -27.5898
c-0.0195312 -7.84473 -1.5127 -15.3857 -4.17969 -22.2998c6.8623 -19.75 11.8828 -40.8076 14.6299 -62.1396zM451.51 16c8.41992 0 13.3301 10.3799 12.3301 18.3799c-14.7197 117.22 -104.08 205.62 -207.84 205.62s-193.11 -88.4004 -207.83 -205.62
c-0.990234 -7.92969 3.75977 -18.3799 12.3301 -18.3799h391.01z" />
    <glyph glyph-name="tanakh" unicode="&#xf827;" horiz-adv-x="448" 
d="M368 448c44.1533 0 80 -35.8467 80 -80v-352c0 -44.1533 -35.8467 -80 -80 -80h-352c-8.83105 0 -16 7.16895 -16 16v16l0.0126953 0.00292969c0 7.76562 5.54395 14.2471 12.8877 15.6973c4.19922 13 4.19922 51.5996 0 64.5996
c-7.34375 1.4502 -12.9004 7.93164 -12.9004 15.6973v0.00292969v368c0 8.83105 7.16895 16 16 16h352zM368 -16c17.6611 0 32 14.3389 32 32s-14.3389 32 -32 32h-314c2.7002 -17.2998 2.7002 -46.7002 0 -64h314zM400 89.2998v278.7c0 17.6611 -14.3389 32 -32 32h-320
v-304h320c0.0283203 0 0.116211 -0.0390625 0.144531 -0.0390625c11.3271 0 22.1025 -2.37793 31.8555 -6.66113zM314.58 248l27.8301 -46.4102c1.79199 -2.96582 2.82324 -6.4834 2.82324 -10.1992c0 -3.56738 -0.951172 -6.91406 -2.61328 -9.80078
c-3.46973 -6.07422 -9.99707 -10.1494 -17.4873 -10.1494h-0.0126953h-56.2998l-27.6006 -46.1602c-3.48438 -5.87793 -9.87988 -9.7998 -17.2031 -9.7998h-0.0166016h-0.0595703c-0.00488281 0 0.00390625 -0.0214844 -0.000976562 -0.0214844
c-7.21387 0 -13.5254 3.89844 -16.9395 9.70117l-27.7402 46.2598h-56.3496c-0.0078125 0 -0.00195312 0.0214844 -0.00976562 0.0214844c-11.0381 0 -20 8.96191 -20 20c0 3.74023 1.0293 7.24316 2.81934 10.2383l27.7002 46.3203l-27.8301 46.4102
c-1.79199 2.96582 -2.82324 6.4834 -2.82324 10.1992c0 3.56738 0.951172 6.91406 2.61328 9.80078c3.46973 6.07422 9.99707 10.1494 17.4873 10.1494h0.0126953h56.2998l27.6006 46.1602c3.48438 5.87793 9.87891 9.80078 17.2021 9.80078
c0.0253906 0 0.0517578 0 0.0771484 -0.000976562c0.00488281 0 -0.00390625 0.0214844 0.000976562 0.0214844c7.21387 0 13.5254 -3.89844 16.9395 -9.70117l27.7402 -46.2598h56.3496c0.0078125 0 0.00195312 -0.0214844 0.00976562 -0.0214844
c11.0381 0 20 -8.96191 20 -20c0 -3.74023 -1.0293 -7.24316 -2.81934 -10.2383zM318.06 300.58l-34.96 -0.0205078l17.4902 -29.1895zM224 352.62l-16.8203 -28.0605h33.6201zM130 300.56l17.4004 -29.1699l17.5098 29.1699h-34.9102zM130 195.44h34.96l-17.4902 29.21z
M224 143.38l16.79 28.0605h-33.5898zM255.15 195.44l31.46 52.5596l-31.4805 52.54h-62.3096l-31.4307 -52.54l31.4805 -52.5596h62.2803zM283.15 195.44h34.9092l-17.46 29.1699z" />
    </font>
</defs>
</svg>
