<?xml version="1.0" standalone="no"?>
<!DOCTYPE svg PUBLIC "-//W3C//DTD SVG 1.1//EN" "http://www.w3.org/Graphics/SVG/1.1/DTD/svg11.dtd" >
<svg xmlns="http://www.w3.org/2000/svg" xmlns:xlink="http://www.w3.org/1999/xlink" version="1.1">
<metadata>
Created by FontForge 20201107 at Wed Aug  4 12:36:48 2021
 By Robert Madole
Copyright (c) Font Awesome
</metadata>
<!-- Font Awesome Pro 5.15.4 by @fontawesome - https://fontawesome.com License - https://fontawesome.com/license (Commercial License) --><defs>
<font id="FontAwesome5Pro-Solid" horiz-adv-x="640" >
  <font-face 
    font-family="Font Awesome 5 Pro Solid"
    font-weight="900"
    font-stretch="normal"
    units-per-em="512"
    panose-1="2 0 5 3 0 0 0 0 0 0"
    ascent="448"
    descent="-64"
    bbox="-0.050293 -64.0996 640 448.05"
    underline-thickness="25"
    underline-position="-50"
    unicode-range="U+0020-F8FF"
  />
    <missing-glyph />
    <glyph glyph-name="truck" unicode="&#xf0d1;" 
d="M624 96c8.7998 0 16 -7.2002 16 -16v-32c0 -8.7998 -7.2002 -16 -16 -16h-48c0 -53 -43 -96 -96 -96s-96 43 -96 96h-128c0 -53 -43 -96 -96 -96s-96 43 -96 96h-16c-26.5 0 -48 21.5 -48 48v320c0 26.5 21.5 48 48 48h320c26.5 0 48 -21.5 48 -48v-48h44.0996
c12.7002 0 24.9004 -5.09961 33.9004 -14.0996l99.9004 -99.9004c9 -9 14.0996 -21.2002 14.0996 -33.9004v-108.1h16zM160 -16c26.5 0 48 21.5 48 48s-21.5 48 -48 48s-48 -21.5 -48 -48s21.5 -48 48 -48zM480 -16c26.5 0 48 21.5 48 48s-21.5 48 -48 48s-48 -21.5 -48 -48
s21.5 -48 48 -48zM560 192v12.0996l-99.9004 99.9004h-44.0996v-112h144z" />
    <glyph glyph-name="stethoscope" unicode="&#xf0f1;" horiz-adv-x="512" 
d="M447.1 336c35.7002 0.5 64.9004 -28.2998 64.9004 -64c0 -23.7002 -12.9004 -44.2998 -32 -55.4004v-112.6c0 -92.5996 -79 -168 -176 -168c-95.4004 0 -173.3 72.7998 -175.9 163.2c-73 14.7998 -128.1 79.5 -128.1 156.8v155.4c0 11.5 8.09961 21.2998 19.2998 23.5996
l62.7998 12.4004c13 2.59961 25.6006 -5.80078 28.2002 -18.8008l3.10059 -15.6992c2.59961 -13 -5.80078 -25.6006 -18.8008 -28.2002l-30.6992 -6.10059v-122.5c0 -53.2998 43.5 -96.5 96.8994 -96c52.9004 0.5 95.1006 44.3008 95.1006 97.2002v121.4l-30.7002 6.09961
c-13 2.60059 -21.4004 15.2002 -18.7998 28.2002l3.19922 15.7002c2.60059 13 15.2002 21.3994 28.2002 18.7998l62.9004 -12.5996c11.2002 -2.2002 19.2998 -12.1006 19.2998 -23.5v-155.4c0 -77.2002 -55 -141.8 -127.8 -156.8
c2.7002 -55.1006 51.8994 -99.2002 111.899 -99.2002c61.8008 0 112 46.7002 112 104v112.6c-19.5 11.2002 -32.5 32.5 -32 56.8008c0.700195 34.1992 28.8008 62.0996 63 62.5996zM448 256c8.7998 0 16 7.2002 16 16s-7.2002 16 -16 16s-16 -7.2002 -16 -16
s7.2002 -16 16 -16z" />
    <glyph glyph-name="ambulance" unicode="&#xf0f9;" 
d="M624 96c8.7998 0 16 -7.2002 16 -16v-32c0 -8.7998 -7.2002 -16 -16 -16h-48c0 -53 -43 -96 -96 -96s-96 43 -96 96h-128c0 -53 -43 -96 -96 -96s-96 43 -96 96h-16c-26.5 0 -48 21.5 -48 48v320c0 26.5 21.5 48 48 48h320c26.5 0 48 -21.5 48 -48v-48h44.0996
c12.7002 0 24.9004 -5.09961 33.9004 -14.0996l99.9004 -99.9004c9 -9 14.0996 -21.2002 14.0996 -33.9004v-108.1h16zM160 -16c26.5 0 48 21.5 48 48s-21.5 48 -48 48s-48 -21.5 -48 -48s21.5 -48 48 -48zM304 232v48c0 4.40039 -3.59961 8 -8 8h-56v56
c0 4.40039 -3.59961 8 -8 8h-48c-4.40039 0 -8 -3.59961 -8 -8v-56h-56c-4.40039 0 -8 -3.59961 -8 -8v-48c0 -4.40039 3.59961 -8 8 -8h56v-56c0 -4.40039 3.59961 -8 8 -8h48c4.40039 0 8 3.59961 8 8v56h56c4.40039 0 8 3.59961 8 8zM480 -16c26.5 0 48 21.5 48 48
s-21.5 48 -48 48s-48 -21.5 -48 -48s21.5 -48 48 -48zM560 192v12.0996l-99.9004 99.9004h-44.0996v-112h144z" />
    <glyph glyph-name="heartbeat" unicode="&#xf21e;" horiz-adv-x="512" 
d="M320.2 204.2l22.0996 -44.2002h109.101l-182.601 -186.5c-7.09961 -7.2998 -18.5996 -7.2998 -25.7002 0l-182.5 186.5h94.1006l30 71.7002l56.8994 -126.3c5.5 -12.3008 22.9004 -12.7002 28.9004 -0.600586zM473.7 374.1
c48.7002 -49.7998 50.7998 -129.1 7.2998 -182.1h-118.9l-27.5996 55.2002c-5.90039 11.7998 -22.7002 11.7998 -28.5996 0l-49 -97.9004l-58.2002 129.3c-5.7998 12.8008 -24 12.5 -29.4004 -0.399414l-35.8994 -86.2002h-102.4c-43.5 53 -41.4004 132.3 7.2998 182.1
l2.40039 2.40039c51.5 52.7002 135.899 52.7002 187.399 0l27.9004 -28.5l27.9004 28.5996c51.5996 52.6006 135.899 52.6006 187.399 0z" />
    <glyph glyph-name="allergies" unicode="&#xf461;" horiz-adv-x="448" 
d="M416 336c17.5996 0 32 -14.4004 32 -32v-176.1c-0.200195 -14 -1.90039 -28.6006 -5.09961 -42.3008l-26.5 -112.699c-5.10059 -21.7002 -24.4004 -37 -46.7002 -37h-197.601c-15.2998 0 -29.7998 7.39941 -38.7998 19.7998l-125.6 172.7
c-13 17.8994 -9.10059 42.8994 8.7998 55.8994s42.9004 9.10059 55.9004 -8.7998l23.5996 -32.5v241c0 17.5996 14.4004 32 32 32s32 -14.4004 32 -32v-152c0 -4.40039 3.59961 -8 8 -8h16c4.40039 0 8 3.59961 8 8v184c0 17.5996 14.4004 32 32 32s32 -14.4004 32 -32v-184
c0 -4.40039 3.59961 -8 8 -8h16c4.40039 0 8 3.59961 8 8v152c0 17.5996 14.4004 32 32 32s32 -14.4004 32 -32v-152c0 -4.40039 3.59961 -8 8 -8h16c4.40039 0 8 3.59961 8 8v72c0 17.5996 14.4004 32 32 32zM176 32c8.7998 0 16 7.2002 16 16s-7.2002 16 -16 16
s-16 -7.2002 -16 -16s7.2002 -16 16 -16zM176 128c8.7998 0 16 7.2002 16 16s-7.2002 16 -16 16s-16 -7.2002 -16 -16s7.2002 -16 16 -16zM240 0c8.7998 0 16 7.2002 16 16s-7.2002 16 -16 16s-16 -7.2002 -16 -16s7.2002 -16 16 -16zM240 96c8.7998 0 16 7.2002 16 16
s-7.2002 16 -16 16s-16 -7.2002 -16 -16s7.2002 -16 16 -16zM304 64c8.7998 0 16 7.2002 16 16s-7.2002 16 -16 16s-16 -7.2002 -16 -16s7.2002 -16 16 -16zM336 0c8.7998 0 16 7.2002 16 16s-7.2002 16 -16 16s-16 -7.2002 -16 -16s7.2002 -16 16 -16zM368 128
c8.7998 0 16 7.2002 16 16s-7.2002 16 -16 16s-16 -7.2002 -16 -16s7.2002 -16 16 -16z" />
    <glyph glyph-name="barcode-alt" unicode="&#xf463;" 
d="M592 448c26.5 0 48 -21.5 48 -48v-416c0 -26.5 -21.5 -48 -48 -48h-544c-26.5 0 -48 21.5 -48 48v416c0 26.5 21.5 48 48 48h544zM160 40v304c0 4.40039 -3.59961 8 -8 8h-48c-4.40039 0 -8 -3.59961 -8 -8v-304c0 -4.40039 3.59961 -8 8 -8h48c4.40039 0 8 3.59961 8 8z
M224 40v304c0 4.40039 -3.59961 8 -8 8h-16c-4.40039 0 -8 -3.59961 -8 -8v-304c0 -4.40039 3.59961 -8 8 -8h16c4.40039 0 8 3.59961 8 8zM288 40v304c0 4.40039 -3.59961 8 -8 8h-16c-4.40039 0 -8 -3.59961 -8 -8v-304c0 -4.40039 3.59961 -8 8 -8h16
c4.40039 0 8 3.59961 8 8zM416 40v304c0 4.40039 -3.59961 8 -8 8h-48c-4.40039 0 -8 -3.59961 -8 -8v-304c0 -4.40039 3.59961 -8 8 -8h48c4.40039 0 8 3.59961 8 8zM544 40v304c0 4.40039 -3.59961 8 -8 8h-48c-4.40039 0 -8 -3.59961 -8 -8v-304
c0 -4.40039 3.59961 -8 8 -8h48c4.40039 0 8 3.59961 8 8z" />
    <glyph glyph-name="barcode-read" unicode="&#xf464;" 
d="M184 320c4.40039 0 8 -3.59961 8 -8v-240c0 -4.40039 -3.59961 -8 -8 -8h-48c-4.40039 0 -8 3.59961 -8 8v240c0 4.40039 3.59961 8 8 8h48zM144 0c8.7998 0 16 -7.2002 16 -16v-32c0 -8.7998 -7.2002 -16 -16 -16h-128c-8.7998 0 -16 7.2002 -16 16v128
c0 8.7998 7.2002 16 16 16h32c8.7998 0 16 -7.2002 16 -16v-80h80zM248 320c4.40039 0 8 -3.59961 8 -8v-240c0 -4.40039 -3.59961 -8 -8 -8h-16c-4.40039 0 -8 3.59961 -8 8v240c0 4.40039 3.59961 8 8 8h16zM16 288c-8.7998 0 -16 7.2002 -16 16v128
c0 8.7998 7.2002 16 16 16h128c8.7998 0 16 -7.2002 16 -16v-32c0 -8.7998 -7.2002 -16 -16 -16h-80v-80c0 -8.7998 -7.2002 -16 -16 -16h-32zM408 320c4.40039 0 8 -3.59961 8 -8v-240c0 -4.40039 -3.59961 -8 -8 -8h-48c-4.40039 0 -8 3.59961 -8 8v240
c0 4.40039 3.59961 8 8 8h48zM312 320c4.40039 0 8 -3.59961 8 -8v-240c0 -4.40039 -3.59961 -8 -8 -8h-16c-4.40039 0 -8 3.59961 -8 8v240c0 4.40039 3.59961 8 8 8h16zM624 448c8.7998 0 16 -7.2002 16 -16v-128c0 -8.7998 -7.2002 -16 -16 -16h-32
c-8.7998 0 -16 7.2002 -16 16v80h-80c-8.7998 0 -16 7.2002 -16 16v32c0 8.7998 7.2002 16 16 16h128zM624 96c8.7998 0 16 -7.2002 16 -16v-128c0 -8.7998 -7.2002 -16 -16 -16h-128c-8.7998 0 -16 7.2002 -16 16v32c0 8.7998 7.2002 16 16 16h80v80
c0 8.7998 7.2002 16 16 16h32zM512 72c0 -4.40039 -3.59961 -8 -8 -8h-48c-4.40039 0 -8 3.59961 -8 8v240c0 4.40039 3.59961 8 8 8h48c4.40039 0 8 -3.59961 8 -8v-240z" />
    <glyph glyph-name="barcode-scan" unicode="&#xf465;" 
d="M288 440v-152h-64v152c0 4.40039 3.59961 8 8 8h48c4.40039 0 8 -3.59961 8 -8zM160 440v-152h-96v152c0 4.40039 3.59961 8 8 8h80c4.40039 0 8 -3.59961 8 -8zM64 -56v152h96v-152c0 -4.40039 -3.59961 -8 -8 -8h-80c-4.40039 0 -8 3.59961 -8 8zM480 440v-152h-64v152
c0 4.40039 3.59961 8 8 8h48c4.40039 0 8 -3.59961 8 -8zM576 440v-152h-64v152c0 4.40039 3.59961 8 8 8h48c4.40039 0 8 -3.59961 8 -8zM384 440v-152h-32v152c0 4.40039 3.59961 8 8 8h16c4.40039 0 8 -3.59961 8 -8zM512 -56v152h64v-152c0 -4.40039 -3.59961 -8 -8 -8
h-48c-4.40039 0 -8 3.59961 -8 8zM224 -56v152h64v-152c0 -4.40039 -3.59961 -8 -8 -8h-48c-4.40039 0 -8 3.59961 -8 8zM416 -56v152h64v-152c0 -4.40039 -3.59961 -8 -8 -8h-48c-4.40039 0 -8 3.59961 -8 8zM352 -56v152h32v-152c0 -4.40039 -3.59961 -8 -8 -8h-16
c-4.40039 0 -8 3.59961 -8 8zM632 224c4.40039 0 8 -3.59961 8 -8v-48c0 -4.40039 -3.59961 -8 -8 -8h-624c-4.40039 0 -8 3.59961 -8 8v48c0 4.40039 3.59961 8 8 8h624z" />
    <glyph glyph-name="box" unicode="&#xf466;" horiz-adv-x="512" 
d="M509.5 263.4c0.799805 -2.40039 0.799805 -4.90039 1.2002 -7.40039h-238.7v192h141.4c20.6992 0 39 -13.2002 45.5 -32.7998zM240 448v-192h-238.7c0.400391 2.5 0.400391 5 1.2002 7.40039l50.5996 151.8c6.5 19.5996 24.8008 32.7998 45.5 32.7998h141.4zM0 224h512
v-240c0 -26.5 -21.5 -48 -48 -48h-416c-26.5 0 -48 21.5 -48 48v240z" />
    <glyph glyph-name="box-check" unicode="&#xf467;" 
d="M240 448v-192h-238.7c0.400391 2.5 0.400391 5 1.2002 7.40039l50.5996 151.8c6.5 19.5996 24.8008 32.7998 45.5 32.7998h141.4zM475.2 366.3c-8.90039 1.10059 -18 1.7002 -27.2002 1.7002c-69.5996 0 -132.1 -29.9004 -176 -77.4004v157.4h141.4
c20.6992 0 39 -13.2002 45.5 -32.9004zM208 128c0 -78.5996 38.0996 -148.2 96.5996 -192h-256.6c-26.5 0 -48 21.5 -48 48v240h228.2c-12.9004 -29.4004 -20.2002 -61.9004 -20.2002 -96zM448 320c106 0 192 -86 192 -192s-86 -192 -192 -192s-192 86 -192 192
s86 192 192 192zM562.1 172.2c4.30078 4.2002 4.30078 11.2002 0.100586 15.5l-25.7998 26c-4.30078 4.2998 -11.3008 4.39941 -15.6006 0.0996094l-97.2002 -96.3994l-42.0996 42.5c-4.2998 4.2998 -11.2998 4.39941 -15.5996 0.0996094l-26 -25.7998
c-4.30078 -4.2998 -4.40039 -11.2998 -0.100586 -15.6006l75.7002 -76.2998c4.2998 -4.39941 11.2998 -4.39941 15.5996 -0.0996094z" />
    <glyph glyph-name="boxes" unicode="&#xf468;" horiz-adv-x="576" 
d="M560 160c8.7998 0 16 -7.2002 16 -16v-192c0 -8.7998 -7.2002 -16 -16 -16h-224c-8.7998 0 -16 7.2002 -16 16v192c0 8.7998 7.2002 16 16 16h80v-96l32 21.2998l32 -21.2998v96h80zM176 224c-8.7998 0 -16 7.2002 -16 16v192c0 8.7998 7.2002 16 16 16h80v-96
l32 21.2998l32 -21.2998v96h80c8.7998 0 16 -7.2002 16 -16v-192c0 -8.7998 -7.2002 -16 -16 -16h-224zM240 160c8.7998 0 16 -7.2002 16 -16v-192c0 -8.7998 -7.2002 -16 -16 -16h-224c-8.7998 0 -16 7.2002 -16 16v192c0 8.7998 7.2002 16 16 16h80v-96l32 21.2998
l32 -21.2998v96h80z" />
    <glyph glyph-name="briefcase-medical" unicode="&#xf469;" horiz-adv-x="512" 
d="M464 320c26.5 0 48 -21.5 48 -48v-288c0 -26.5 -21.5 -48 -48 -48h-416c-26.5 0 -48 21.5 -48 48v288c0 26.5 21.5 48 48 48h80v48c0 26.5 21.5 48 48 48h160c26.5 0 48 -21.5 48 -48v-48h80zM192 352v-32h128v32h-128zM352 104v48c0 4.40039 -3.59961 8 -8 8h-56v56
c0 4.40039 -3.59961 8 -8 8h-48c-4.40039 0 -8 -3.59961 -8 -8v-56h-56c-4.40039 0 -8 -3.59961 -8 -8v-48c0 -4.40039 3.59961 -8 8 -8h56v-56c0 -4.40039 3.59961 -8 8 -8h48c4.40039 0 8 3.59961 8 8v56h56c4.40039 0 8 3.59961 8 8z" />
    <glyph glyph-name="burn" unicode="&#xf46a;" horiz-adv-x="384" 
d="M192 448c111.8 -100.9 192 -220.6 192 -300.5c0 -124.5 -79 -211.5 -192 -211.5s-192 87 -192 211.5c0 79.5996 79.7002 199.2 192 300.5zM192 0c56.5 0 96 39 96 94.7998c0 13.5 -4.59961 61.5 -96 161.2c-91.4004 -99.7002 -96 -147.7 -96 -161.2
c0 -55.7998 39.5 -94.7998 96 -94.7998z" />
    <glyph glyph-name="capsules" unicode="&#xf46b;" horiz-adv-x="576" 
d="M555.3 147.9c36.2002 -51.7002 23.7002 -123 -28 -159.2c-20 -14 -42.7998 -20.7002 -65.5 -20.7002c-36.0996 0 -71.5996 17 -93.7998 48.7998l-131.2 187.3c-5.5 7.90039 -9.5 16.4004 -12.7998 25v-149.1c0 -61.9004 -50.0996 -112 -112 -112s-112 50.0996 -112 112
v224c0 61.9004 50.0996 112 112 112c60 0 108.5 -47.2002 111.4 -106.5c7.7998 21 21.7998 40 41.5 53.7998c20 14 42.8994 20.7002 65.5 20.7002c36 0 71.5 -17 93.7998 -48.7998zM160 192v112c0 26.5 -21.5 48 -48 48s-48 -21.5 -48 -48v-112h96zM354.8 147.1
l82.5 57.7002l-65.5996 93.7002c-9.40039 13.5 -24.7998 21.5 -41.2998 21.5c-10.3008 0 -20.3008 -3.09961 -28.8008 -9.09961c-11 -7.7002 -18.3994 -19.3008 -20.6992 -32.5c-2.40039 -13.2002 0.599609 -26.6006 8.2998 -37.6006z" />
    <glyph glyph-name="clipboard-check" unicode="&#xf46c;" horiz-adv-x="384" 
d="M336 384c26.5 0 48 -21.5 48 -48v-352c0 -26.5 -21.5 -48 -48 -48h-288c-26.5 0 -48 21.5 -48 48v352c0 26.5 21.5 48 48 48h80c0 35.2998 28.7002 64 64 64s64 -28.7002 64 -64h80zM192 408c-13.2998 0 -24 -10.7002 -24 -24s10.7002 -24 24 -24s24 10.7002 24 24
s-10.7002 24 -24 24zM313.2 176.2c4.7002 4.7002 4.7998 12.2002 0.0996094 17l-28.2002 28.3994c-4.69922 4.7002 -12.2998 4.80078 -17 0.100586l-106 -105.2l-46 46.4004c-4.69922 4.69922 -12.2998 4.7998 -17 0.0996094l-28.3994 -28.2002
c-4.7002 -4.7002 -4.7998 -12.2998 -0.100586 -17l82.6006 -83.2998c4.7002 -4.7002 12.2998 -4.7998 17 -0.0996094z" />
    <glyph glyph-name="clipboard-list" unicode="&#xf46d;" horiz-adv-x="384" 
d="M336 384c26.5 0 48 -21.5 48 -48v-352c0 -26.5 -21.5 -48 -48 -48h-288c-26.5 0 -48 21.5 -48 48v352c0 26.5 21.5 48 48 48h80c0 35.2998 28.7002 64 64 64s64 -28.7002 64 -64h80zM96 24c13.2998 0 24 10.7002 24 24s-10.7002 24 -24 24s-24 -10.7002 -24 -24
s10.7002 -24 24 -24zM96 120c13.2998 0 24 10.7002 24 24s-10.7002 24 -24 24s-24 -10.7002 -24 -24s10.7002 -24 24 -24zM96 216c13.2998 0 24 10.7002 24 24s-10.7002 24 -24 24s-24 -10.7002 -24 -24s10.7002 -24 24 -24zM192 408c-13.2998 0 -24 -10.7002 -24 -24
s10.7002 -24 24 -24s24 10.7002 24 24s-10.7002 24 -24 24zM320 40v16c0 4.40039 -3.59961 8 -8 8h-144c-4.40039 0 -8 -3.59961 -8 -8v-16c0 -4.40039 3.59961 -8 8 -8h144c4.40039 0 8 3.59961 8 8zM320 136v16c0 4.40039 -3.59961 8 -8 8h-144
c-4.40039 0 -8 -3.59961 -8 -8v-16c0 -4.40039 3.59961 -8 8 -8h144c4.40039 0 8 3.59961 8 8zM320 232v16c0 4.40039 -3.59961 8 -8 8h-144c-4.40039 0 -8 -3.59961 -8 -8v-16c0 -4.40039 3.59961 -8 8 -8h144c4.40039 0 8 3.59961 8 8z" />
    <glyph glyph-name="conveyor-belt" unicode="&#xf46e;" 
d="M144 192c-8.7998 0 -16 7.2002 -16 16v224c0 8.7998 7.2002 16 16 16h112v-128l64 32l64 -32v128h112c8.7998 0 16 -7.2002 16 -16v-224c0 -8.7998 -7.2002 -16 -16 -16h-352zM544 128c53 0 96 -43 96 -96s-43 -96 -96 -96h-448c-53 0 -96 43 -96 96s43 96 96 96h448z
M128 0c17.7002 0 32 14.2998 32 32s-14.2998 32 -32 32s-32 -14.2998 -32 -32s14.2998 -32 32 -32zM320 0c17.7002 0 32 14.2998 32 32s-14.2998 32 -32 32s-32 -14.2998 -32 -32s14.2998 -32 32 -32zM512 0c17.7002 0 32 14.2998 32 32s-14.2998 32 -32 32
s-32 -14.2998 -32 -32s14.2998 -32 32 -32z" />
    <glyph glyph-name="conveyor-belt-alt" unicode="&#xf46f;" 
d="M80 192c-8.7998 0 -16 7.2002 -16 16v224c0 8.7998 7.2002 16 16 16h224c8.7998 0 16 -7.2002 16 -16v-224c0 -8.7998 -7.2002 -16 -16 -16h-224zM400 192c-8.7998 0 -16 7.2002 -16 16v160c0 8.7998 7.2002 16 16 16h160c8.7998 0 16 -7.2002 16 -16v-160
c0 -8.7998 -7.2002 -16 -16 -16h-160zM544 128c53 0 96 -43 96 -96s-43 -96 -96 -96h-448c-53 0 -96 43 -96 96s43 96 96 96h448zM128 0c17.7002 0 32 14.2998 32 32s-14.2998 32 -32 32s-32 -14.2998 -32 -32s14.2998 -32 32 -32zM320 0c17.7002 0 32 14.2998 32 32
s-14.2998 32 -32 32s-32 -14.2998 -32 -32s14.2998 -32 32 -32zM512 0c17.7002 0 32 14.2998 32 32s-14.2998 32 -32 32s-32 -14.2998 -32 -32s14.2998 -32 32 -32z" />
    <glyph glyph-name="dolly" unicode="&#xf472;" horiz-adv-x="576" 
d="M294.2 170.3l-53 159.4c-2.7998 8.2998 1.7002 17.3994 10.0996 20.2002l61.6006 20.5l33.0996 -99.4004l60.7002 20.0996l-33.1006 99.4004l61.1006 20.4004c8.2998 2.7998 17.3994 -1.7002 20.2002 -10.1006l60.3994 -181.2
c2.7998 -8.2998 -1.7002 -17.3994 -10.0996 -20.1992l-161.5 -53.8008c-14.7998 11.3008 -31.5 19.7002 -49.5 24.7002zM575.2 121.6c2.7998 -8.39941 -1.7998 -17.3994 -10.1006 -20.1992l-213.3 -71.2002c-1.09961 -57.7998 -53.2002 -103.3 -113.399 -92.6006
c-39.4004 6.90039 -71.2002 39.8008 -77.3008 79.2002c-5.69922 36.9004 9.90039 70.1006 36 90.5l-92.1992 276.7h-88.9004c-8.7998 0 -16 7.2002 -16 16v32c0 8.7998 7.2002 16 16 16h112c13.7998 0 26 -8.7998 30.4004 -21.9004l99.3994 -298.199
c29.9004 -0.600586 56.2998 -15 73.5 -37l213.5 71.1992c8.2998 2.80078 17.4004 -1.69922 20.2002 -10.0996zM256 -16c26.5 0 48 21.5 48 48s-21.5 48 -48 48s-48 -21.5 -48 -48s21.5 -48 48 -48z" />
    <glyph glyph-name="dolly-empty" unicode="&#xf473;" horiz-adv-x="576" 
d="M575.2 121.6c2.7998 -8.39941 -1.7998 -17.3994 -10.2002 -20.1992l-213.2 -71.2002c-1.09961 -57.7998 -53.2002 -103.3 -113.399 -92.6006c-39.4004 6.90039 -71.2002 39.8008 -77.3008 79.2002c-5.69922 36.9004 9.90039 70.1006 36 90.5l-92.1992 276.7h-88.9004
c-8.7998 0 -16 7.2002 -16 16v32c0 8.7998 7.2002 16 16 16h112c13.7998 0 26 -8.7998 30.4004 -21.9004l99.3994 -298.199c29.9004 -0.600586 56.2998 -15 73.5 -37l213.5 71.1992c8.2998 2.80078 17.4004 -1.69922 20.2002 -10.0996zM256 -16c26.5 0 48 21.5 48 48
s-21.5 48 -48 48s-48 -21.5 -48 -48s21.5 -48 48 -48z" />
    <glyph glyph-name="dolly-flatbed" unicode="&#xf474;" 
d="M208 128c-8.7998 0 -16 7.2002 -16 16v256c0 8.7998 7.2002 16 16 16h144v-128l48 32l48 -32v128h144c8.7998 0 16 -7.2002 16 -16v-256c0 -8.7998 -7.2002 -16 -16 -16h-384zM624 64c8.7998 0 16 -7.2002 16 -16v-32c0 -8.7998 -7.2002 -16 -16 -16h-82.7998
c1.7002 -5 2.89941 -10.4004 2.89941 -16c0 -26.5 -21.5 -48 -48 -48s-48 21.5 -48 48c0 5.59961 1.10059 11 2.90039 16h-197.9c1.7002 -5 2.90039 -10.4004 2.90039 -16c0 -26.5 -21.5 -48 -48 -48s-48 21.5 -48 48c0 5.59961 1.09961 11 2.90039 16h-82.9004
c-8.7998 0 -16 7.2002 -16 16v368h-48c-8.7998 0 -16 7.2002 -16 16v32c0 8.7998 7.2002 16 16 16h96c8.7998 0 16 -7.2002 16 -16v-368h496z" />
    <glyph glyph-name="dolly-flatbed-alt" unicode="&#xf475;" 
d="M624 64c8.7998 0 16 -7.2002 16 -16v-32c0 -8.7998 -7.2002 -16 -16 -16h-82.7998c1.7002 -5 2.89941 -10.4004 2.89941 -16c0 -26.5 -21.5 -48 -48 -48s-48 21.5 -48 48c0 5.59961 1.10059 11 2.90039 16h-197.9c1.7002 -5 2.90039 -10.4004 2.90039 -16
c0 -26.5 -21.5 -48 -48 -48s-48 21.5 -48 48c0 5.59961 1.09961 11 2.90039 16h-82.9004c-8.7998 0 -16 7.2002 -16 16v368h-48c-8.7998 0 -16 7.2002 -16 16v32c0 8.7998 7.2002 16 16 16h96c8.7998 0 16 -7.2002 16 -16v-368h496zM208 128c-8.7998 0 -16 7.2002 -16 16
v256c0 8.7998 7.2002 16 16 16h160c8.7998 0 16 -7.2002 16 -16v-256c0 -8.7998 -7.2002 -16 -16 -16h-160zM432 288c-8.7998 0 -16 7.2002 -16 16v96c0 8.7998 7.2002 16 16 16h96c8.7998 0 16 -7.2002 16 -16v-96c0 -8.7998 -7.2002 -16 -16 -16h-96zM432 128
c-8.7998 0 -16 7.2002 -16 16v96c0 8.7998 7.2002 16 16 16h160c8.7998 0 16 -7.2002 16 -16v-96c0 -8.7998 -7.2002 -16 -16 -16h-160z" />
    <glyph glyph-name="first-aid" unicode="&#xf479;" horiz-adv-x="576" 
d="M0 368c0 26.5 21.5 48 48 48h48v-448h-48c-26.5 0 -48 21.5 -48 48v352zM128 -32v448h320v-448h-320zM192 216v-48c0 -4.40039 3.59961 -8 8 -8h56v-56c0 -4.40039 3.59961 -8 8 -8h48c4.40039 0 8 3.59961 8 8v56h56c4.40039 0 8 3.59961 8 8v48
c0 4.40039 -3.59961 8 -8 8h-56v56c0 4.40039 -3.59961 8 -8 8h-48c-4.40039 0 -8 -3.59961 -8 -8v-56h-56c-4.40039 0 -8 -3.59961 -8 -8zM528 416c26.5 0 48 -21.5 48 -48v-352c0 -26.5 -21.5 -48 -48 -48h-48v448h48z" />
    <glyph glyph-name="forklift" unicode="&#xf47a;" 
d="M624 64c8.7998 0 16 -7.2002 16 -16v-32c0 -8.7998 -7.2002 -16 -16 -16h-128c-8.7998 0 -16 7.2002 -16 16v416c0 8.7998 7.2002 16 16 16h32c8.7998 0 16 -7.2002 16 -16v-368h80zM416 210.9v-107.801c19.5 -17.5996 32 -42.7998 32 -71.0996c0 -53 -43 -96 -96 -96
s-96 43 -96 96h-64c0 -53 -43 -96 -96 -96s-96 43 -96 96v208c0 26.5 21.5 48 48 48h48v112c0 26.5 21.5 48 48 48h144.3c19.2998 0 36.6006 -11.4004 44.2002 -29.0996l78.2998 -182.801c3.40039 -8 5.2002 -16.5 5.2002 -25.1992zM96 -16c26.5 0 48 21.5 48 48
s-21.5 48 -48 48s-48 -21.5 -48 -48s21.5 -48 48 -48zM256 192h96v18.9004l-74.2002 173.1h-117.8v-96zM352 -16c26.5 0 48 21.5 48 48s-21.5 48 -48 48s-48 -21.5 -48 -48s21.5 -48 48 -48z" />
    <glyph glyph-name="hospital-alt" unicode="&#xf47d;" horiz-adv-x="576" 
d="M544 352c17.7002 0 32 -14.2998 32 -32v-368c0 -8.7998 -7.2002 -16 -16 -16h-544c-8.7998 0 -16 7.2002 -16 16v368c0 17.7002 14.2998 32 32 32h128v64c0 17.7002 14.2998 32 32 32h192c17.7002 0 32 -14.2998 32 -32v-64h128zM160 12v40c0 6.59961 -5.40039 12 -12 12
h-40c-6.59961 0 -12 -5.40039 -12 -12v-40c0 -6.59961 5.40039 -12 12 -12h40c6.59961 0 12 5.40039 12 12zM160 140v40c0 6.59961 -5.40039 12 -12 12h-40c-6.59961 0 -12 -5.40039 -12 -12v-40c0 -6.59961 5.40039 -12 12 -12h40c6.59961 0 12 5.40039 12 12zM320 12v40
c0 6.59961 -5.40039 12 -12 12h-40c-6.59961 0 -12 -5.40039 -12 -12v-40c0 -6.59961 5.40039 -12 12 -12h40c6.59961 0 12 5.40039 12 12zM320 140v40c0 6.59961 -5.40039 12 -12 12h-40c-6.59961 0 -12 -5.40039 -12 -12v-40c0 -6.59961 5.40039 -12 12 -12h40
c6.59961 0 12 5.40039 12 12zM336 310v20c0 3.2998 -2.7002 6 -6 6h-26v26c0 3.2998 -2.7002 6 -6 6h-20c-3.2998 0 -6 -2.7002 -6 -6v-26h-26c-3.2998 0 -6 -2.7002 -6 -6v-20c0 -3.2998 2.7002 -6 6 -6h26v-26c0 -3.2998 2.7002 -6 6 -6h20c3.2998 0 6 2.7002 6 6v26h26
c3.2998 0 6 2.7002 6 6zM480 12v40c0 6.59961 -5.40039 12 -12 12h-40c-6.59961 0 -12 -5.40039 -12 -12v-40c0 -6.59961 5.40039 -12 12 -12h40c6.59961 0 12 5.40039 12 12zM480 140v40c0 6.59961 -5.40039 12 -12 12h-40c-6.59961 0 -12 -5.40039 -12 -12v-40
c0 -6.59961 5.40039 -12 12 -12h40c6.59961 0 12 5.40039 12 12z" />
    <glyph glyph-name="hospital-symbol" unicode="&#xf47e;" horiz-adv-x="512" 
d="M256 448c141.4 0 256 -114.6 256 -256s-114.6 -256 -256 -256s-256 114.6 -256 256s114.6 256 256 256zM368 72v240c0 4.40039 -3.59961 8 -8 8h-48c-4.40039 0 -8 -3.59961 -8 -8v-88h-96v88c0 4.40039 -3.59961 8 -8 8h-48c-4.40039 0 -8 -3.59961 -8 -8v-240
c0 -4.40039 3.59961 -8 8 -8h48c4.40039 0 8 3.59961 8 8v88h96v-88c0 -4.40039 3.59961 -8 8 -8h48c4.40039 0 8 3.59961 8 8z" />
    <glyph glyph-name="notes-medical" unicode="&#xf481;" horiz-adv-x="384" 
d="M336 384c26.5 0 48 -21.5 48 -48v-352c0 -26.5 -21.5 -48 -48 -48h-288c-26.5 0 -48 21.5 -48 48v352c0 26.5 21.5 48 48 48h80c0 35.2998 28.7002 64 64 64s64 -28.7002 64 -64h80zM192 408c-13.2998 0 -24 -10.7002 -24 -24s10.7002 -24 24 -24s24 10.7002 24 24
s-10.7002 24 -24 24zM288 104v48c0 4.40039 -3.59961 8 -8 8h-56v56c0 4.40039 -3.59961 8 -8 8h-48c-4.40039 0 -8 -3.59961 -8 -8v-56h-56c-4.40039 0 -8 -3.59961 -8 -8v-48c0 -4.40039 3.59961 -8 8 -8h56v-56c0 -4.40039 3.59961 -8 8 -8h48c4.40039 0 8 3.59961 8 8
v56h56c4.40039 0 8 3.59961 8 8zM288 296v16c0 4.40039 -3.59961 8 -8 8h-176c-4.40039 0 -8 -3.59961 -8 -8v-16c0 -4.40039 3.59961 -8 8 -8h176c4.40039 0 8 3.59961 8 8z" />
    <glyph glyph-name="pallet" unicode="&#xf482;" 
d="M144 192c-8.7998 0 -16 7.2002 -16 16v224c0 8.7998 7.2002 16 16 16h112v-128l64 32l64 -32v128h112c8.7998 0 16 -7.2002 16 -16v-224c0 -8.7998 -7.2002 -16 -16 -16h-352zM624 64h-48v-64h48c8.7998 0 16 -7.2002 16 -16v-32c0 -8.7998 -7.2002 -16 -16 -16h-608
c-8.7998 0 -16 7.2002 -16 16v32c0 8.7998 7.2002 16 16 16h48v64h-48c-8.7998 0 -16 7.2002 -16 16v32c0 8.7998 7.2002 16 16 16h608c8.7998 0 16 -7.2002 16 -16v-32c0 -8.7998 -7.2002 -16 -16 -16zM288 0v64h-160v-64h160zM512 0v64h-160v-64h160z" />
    <glyph glyph-name="pallet-alt" unicode="&#xf483;" 
d="M80 192c-8.7998 0 -16 7.2002 -16 16v224c0 8.7998 7.2002 16 16 16h224c8.7998 0 16 -7.2002 16 -16v-224c0 -8.7998 -7.2002 -16 -16 -16h-224zM400 192c-8.7998 0 -16 7.2002 -16 16v160c0 8.7998 7.2002 16 16 16h160c8.7998 0 16 -7.2002 16 -16v-160
c0 -8.7998 -7.2002 -16 -16 -16h-160zM624 64h-48v-64h48c8.7998 0 16 -7.2002 16 -16v-32c0 -8.7998 -7.2002 -16 -16 -16h-608c-8.7998 0 -16 7.2002 -16 16v32c0 8.7998 7.2002 16 16 16h48v64h-48c-8.7998 0 -16 7.2002 -16 16v32c0 8.7998 7.2002 16 16 16h608
c8.7998 0 16 -7.2002 16 -16v-32c0 -8.7998 -7.2002 -16 -16 -16zM288 0v64h-160v-64h160zM512 0v64h-160v-64h160z" />
    <glyph glyph-name="pills" unicode="&#xf484;" horiz-adv-x="576" 
d="M112 416c61.9004 0 112 -50.0996 112 -112v-224c0 -61.9004 -50.0996 -112 -112 -112s-112 50.0996 -112 112v224c0 61.9004 50.0996 112 112 112zM160 192v112c0 26.5 -21.5 48 -48 48s-48 -21.5 -48 -48v-112h96zM299.7 221.7l210.8 -210.8
c3.5 -3.5 3.2002 -9.40039 -0.799805 -12.3008c-62.5 -45.2998 -150.101 -40.3994 -206.4 15.9004s-61.2002 143.9 -15.8994 206.4c2.89941 3.89941 8.7998 4.2998 12.2998 0.799805zM529.5 240.7c56.4004 -56.2998 61.2002 -143.8 15.9004 -206.4
c-2.90039 -3.89941 -8.80078 -4.2998 -12.3008 -0.799805l-210.8 210.8c-3.5 3.5 -3.2002 9.40039 0.799805 12.2998c62.5 45.3008 150.101 40.4004 206.4 -15.8994z" />
    <glyph glyph-name="prescription-bottle" unicode="&#xf485;" horiz-adv-x="384" 
d="M32 256v64h320v-352c0 -17.5996 -14.4004 -32 -32 -32h-256c-17.5996 0 -32 14.4004 -32 32v64h120c4.40039 0 8 3.59961 8 8v16c0 4.40039 -3.59961 8 -8 8h-120v64h120c4.40039 0 8 3.59961 8 8v16c0 4.40039 -3.59961 8 -8 8h-120v64h120c4.40039 0 8 3.59961 8 8v16
c0 4.40039 -3.59961 8 -8 8h-120zM360 448c13.2002 0 24 -10.7998 24 -24v-48c0 -13.2002 -10.7998 -24 -24 -24h-336c-13.2002 0 -24 10.7998 -24 24v48c0 13.2002 10.7998 24 24 24h336z" />
    <glyph glyph-name="prescription-bottle-alt" unicode="&#xf486;" horiz-adv-x="384" 
d="M360 448c13.2002 0 24 -10.7998 24 -24v-48c0 -13.2002 -10.7998 -24 -24 -24h-336c-13.2002 0 -24 10.7998 -24 24v48c0 13.2002 10.7998 24 24 24h336zM32 -32v352h320v-352c0 -17.5996 -14.4004 -32 -32 -32h-256c-17.5996 0 -32 14.4004 -32 32zM96 152v-48
c0 -4.40039 3.59961 -8 8 -8h56v-56c0 -4.40039 3.59961 -8 8 -8h48c4.40039 0 8 3.59961 8 8v56h56c4.40039 0 8 3.59961 8 8v48c0 4.40039 -3.59961 8 -8 8h-56v56c0 4.40039 -3.59961 8 -8 8h-48c-4.40039 0 -8 -3.59961 -8 -8v-56h-56c-4.40039 0 -8 -3.59961 -8 -8z
" />
    <glyph glyph-name="procedures" unicode="&#xf487;" 
d="M528 224c61.9004 0 112 -50.0996 112 -112v-160c0 -8.7998 -7.2002 -16 -16 -16h-32c-8.7998 0 -16 7.2002 -16 16v48h-512v-48c0 -8.7998 -7.2002 -16 -16 -16h-32c-8.7998 0 -16 7.2002 -16 16v352c0 8.7998 7.2002 16 16 16h32c8.7998 0 16 -7.2002 16 -16v-240h192
v144c0 8.7998 7.2002 16 16 16h256zM136 352c-4.40039 0 -8 3.59961 -8 8v16c0 4.40039 3.59961 8 8 8h140.9c3.09961 0 5.7998 -1.7002 7.19922 -4.40039l19.9004 -39.7998l49.7002 99.4004c5.89941 11.7998 22.7002 11.7998 28.5996 0l27.6006 -55.2002h102.1
c8.7998 0 16 -7.2002 16 -16s-7.2002 -16 -16 -16h-121.9l-22.0996 44.2002l-49.7002 -99.4004c-5.89941 -11.7998 -22.7002 -11.7998 -28.5996 0l-27.6006 55.2002h-126.1zM160 96c-35.2998 0 -64 28.7002 -64 64s28.7002 64 64 64s64 -28.7002 64 -64
s-28.7002 -64 -64 -64z" />
    <glyph glyph-name="scanner-keyboard" unicode="&#xf489;" horiz-adv-x="576" 
d="M400 352c8.7998 0 16 -7.2002 16 -16v-137.4c0 -4.19922 -1.7002 -8.2998 -4.7002 -11.2998l-27.2998 -27.2998v-176c0 -26.5 -21.5 -48 -48 -48h-256c-26.5 0 -48 21.5 -48 48v176l-27.2998 27.2998c-3 3 -4.7002 7.10059 -4.7002 11.2998v137.4
c0 8.7998 7.2002 16 16 16h384zM192 8v48c0 4.40039 -3.59961 8 -8 8h-80c-4.40039 0 -8 -3.59961 -8 -8v-48c0 -4.40039 3.59961 -8 8 -8h80c4.40039 0 8 3.59961 8 8zM192 104v48c0 4.40039 -3.59961 8 -8 8h-80c-4.40039 0 -8 -3.59961 -8 -8v-48
c0 -4.40039 3.59961 -8 8 -8h80c4.40039 0 8 3.59961 8 8zM320 8v48c0 4.40039 -3.59961 8 -8 8h-80c-4.40039 0 -8 -3.59961 -8 -8v-48c0 -4.40039 3.59961 -8 8 -8h80c4.40039 0 8 3.59961 8 8zM320 104v48c0 4.40039 -3.59961 8 -8 8h-80c-4.40039 0 -8 -3.59961 -8 -8
v-48c0 -4.40039 3.59961 -8 8 -8h80c4.40039 0 8 3.59961 8 8zM352 232v48c0 4.40039 -3.59961 8 -8 8h-272c-4.40039 0 -8 -3.59961 -8 -8v-48c0 -4.40039 3.59961 -8 8 -8h272c4.40039 0 8 3.59961 8 8zM256 440v-56h-64v56c0 4.40039 3.59961 8 8 8h48
c4.40039 0 8 -3.59961 8 -8zM408 448c4.40039 0 8 -3.59961 8 -8v-56h-64v56c0 4.40039 3.59961 8 8 8h48zM568 448c4.40039 0 8 -3.59961 8 -8v-272c0 -4.40039 -3.59961 -8 -8 -8h-48c-4.40039 0 -8 3.59961 -8 8v272c0 4.40039 3.59961 8 8 8h48zM320 440v-56h-32v56
c0 4.40039 3.59961 8 8 8h16c4.40039 0 8 -3.59961 8 -8zM472 448c4.40039 0 8 -3.59961 8 -8v-272c0 -4.40039 -3.59961 -8 -8 -8h-16c-4.40039 0 -8 3.59961 -8 8v272c0 4.40039 3.59961 8 8 8h16z" />
    <glyph glyph-name="shipping-fast" unicode="&#xf48b;" 
d="M624 96c8.7998 0 16 -7.2002 16 -16v-32c0 -8.7998 -7.2002 -16 -16 -16h-48c0 -53 -43 -96 -96 -96s-96 43 -96 96h-128c0 -53 -43 -96 -96 -96s-96 43 -96 96v128h152c4.40039 0 8 3.59961 8 8v16c0 4.40039 -3.59961 8 -8 8h-208c-4.40039 0 -8 3.59961 -8 8v16
c0 4.40039 3.59961 8 8 8h240c4.40039 0 8 3.59961 8 8v16c0 4.40039 -3.59961 8 -8 8h-208c-4.40039 0 -8 3.59961 -8 8v16c0 4.40039 3.59961 8 8 8h240c4.40039 0 8 3.59961 8 8v16c0 4.40039 -3.59961 8 -8 8h-272c-4.40039 0 -8 3.59961 -8 8v16
c0 4.40039 3.59961 8 8 8h56v48c0 26.5 21.5 48 48 48h256c26.5 0 48 -21.5 48 -48v-48h44.0996c12.7002 0 24.9004 -5.09961 33.9004 -14.0996l99.9004 -99.9004c9 -9 14.0996 -21.2002 14.0996 -33.9004v-108.1h16zM160 -16c26.5 0 48 21.5 48 48s-21.5 48 -48 48
s-48 -21.5 -48 -48s21.5 -48 48 -48zM480 -16c26.5 0 48 21.5 48 48s-21.5 48 -48 48s-48 -21.5 -48 -48s21.5 -48 48 -48zM560 192v12.0996l-99.9004 99.9004h-44.0996v-112h144z" />
    <glyph glyph-name="shipping-timed" unicode="&#xf48c;" 
d="M248 288c4.40039 0 8 -3.59961 8 -8v-16c0 -4.40039 -3.59961 -8 -8 -8h-48c-4.40039 0 -8 3.59961 -8 8v80c0 4.40039 3.59961 8 8 8h16c4.40039 0 8 -3.59961 8 -8v-56h24zM624 96c8.7998 0 16 -7.2002 16 -16v-32c0 -8.7998 -7.2002 -16 -16 -16h-48
c0 -53 -43 -96 -96 -96s-96 43 -96 96h-128c0 -53 -43 -96 -96 -96s-96 43 -96 96h-16c-26.5 0 -48 21.5 -48 48v320c0 26.5 21.5 48 48 48h320c26.5 0 48 -21.5 48 -48v-48h44.0996c12.7002 0 24.9004 -5.09961 33.9004 -14.0996l99.9004 -99.9004
c9 -9 14.0996 -21.2002 14.0996 -33.9004v-108.1h16zM160 -16c26.5 0 48 21.5 48 48s-21.5 48 -48 48s-48 -21.5 -48 -48s21.5 -48 48 -48zM208 160c61.9004 0 112 50.0996 112 112s-50.0996 112 -112 112s-112 -50.0996 -112 -112s50.0996 -112 112 -112zM480 -16
c26.5 0 48 21.5 48 48s-21.5 48 -48 48s-48 -21.5 -48 -48s21.5 -48 48 -48zM560 192v12.0996l-99.9004 99.9004h-44.0996v-112h144z" />
    <glyph glyph-name="smoking" unicode="&#xf48d;" 
d="M632 96c4.40039 0 8 -3.59961 8 -8v-144c0 -4.40039 -3.59961 -8 -8 -8h-48c-4.40039 0 -8 3.59961 -8 8v144c0 4.40039 3.59961 8 8 8h48zM553.3 360.9c54.2998 -36.4004 86.7002 -97.1006 86.7002 -162.601v-30.2998c0 -4.40039 -3.59961 -8 -8 -8h-48
c-4.40039 0 -8 3.59961 -8 8v30.2998c0 50.2002 -25.2002 96.7002 -67.4004 124c-18.3994 12 -28.5996 33.4004 -28.5996 55.4004v62.2998c0 4.40039 3.59961 8 8 8h48c4.40039 0 8 -3.59961 8 -8v-62.2998c0 -6.7998 3.59961 -13 9.2998 -16.7998zM432 96
c8.7998 0 16 -7.2002 16 -16v-128c0 -8.7998 -7.2002 -16 -16 -16h-384c-26.5 0 -48 21.5 -48 48v64c0 26.5 21.5 48 48 48h384zM400 -16v64h-176v-64h176zM487.7 306.4c35.2998 -24.7002 56.2998 -64.8008 56.2998 -108.101v-30.2998c0 -4.40039 -3.59961 -8 -8 -8h-48
c-4.40039 0 -8 3.59961 -8 8v30.2998c0 27.4004 -13.2998 52.9004 -35.7002 68.6006c-35.7002 25.0996 -60.2998 63 -60.2998 106.699v66.4004c0 4.40039 3.59961 8 8 8h48c4.40039 0 8 -3.59961 8 -8v-62.2998c0 -29 15.7998 -54.7002 39.7002 -71.2998zM536 96
c4.40039 0 8 -3.59961 8 -8v-144c0 -4.40039 -3.59961 -8 -8 -8h-48c-4.40039 0 -8 3.59961 -8 8v144c0 4.40039 3.59961 8 8 8h48z" />
    <glyph glyph-name="syringe" unicode="&#xf48e;" horiz-adv-x="512" 
d="M201.5 273.2l64.9004 65l135.699 -135.7l-181.899 -181.9c-17.5 -17.5996 -41.5 -25.5996 -65.4004 -23l-63.5996 7.10059l-66.2998 -66.2998c-3.10059 -3.10059 -8.2002 -3.10059 -11.3008 0l-11.2998 11.2998c-3.09961 3.09961 -3.09961 8.2002 0 11.2998
l66.4004 66.4004l-7.10059 63.5996c-2.59961 24.2998 5.7002 48.0996 23 65.4004l26.4004 26.3994l55.7998 -55.8994c3.10059 -3.10059 8.2002 -3.10059 11.2998 0l11.3008 11.2998c3.09961 3.09961 3.09961 8.2002 0 11.2998l-55.8008 55.7998l45.3008 45.2998
l55.6992 -55.7998c3.10059 -3.09961 8.2002 -3.09961 11.3008 0l11.2998 11.2998c3.09961 3.10059 3.09961 8.2002 0 11.3008zM509.7 366.5c3.09961 -3.2002 3.09961 -8.2002 0 -11.4004l-11.2998 -11.2998c-3.10059 -3.09961 -8.2002 -3.09961 -11.3008 0l-28.2998 28.2998
l-45.2998 -45.2998l73.5 -73.5c3.09961 -3.09961 3.09961 -8.2002 0 -11.2998l-33.9004 -34c-3.09961 -3.09961 -8.19922 -3.09961 -11.2998 0l-17 17l-135.7 135.9l-17 17c-3.09961 3.09961 -3.09961 8.19922 0 11.2998l33.9004 33.8994
c3.09961 3.10059 8.2002 3.10059 11.2998 0l17 -17l56.6006 -56.5996l45.2998 45.2998l-28.2998 28.2998c-3.10059 3.10059 -3.10059 8.2002 0 11.3008l11.2998 11.2998c3.09961 3.09961 8.2002 3.09961 11.2998 0z" />
    <glyph glyph-name="tablet-rugged" unicode="&#xf48f;" horiz-adv-x="448" 
d="M439.2 283.6l-23.2002 -11.5996v-16l23.2002 -11.5996c5.39941 -2.7002 8.7998 -8.2002 8.7998 -14.3008v-76.1992c0 -6.10059 -3.40039 -11.6006 -8.7998 -14.3008l-23.2002 -11.5996v-16l23.2002 -11.5996c5.39941 -2.7002 8.7998 -8.2002 8.7998 -14.3008v-76.1992
c0 -6.10059 -3.40039 -11.6006 -8.7998 -14.3008l-23.2002 -11.5996c0 -26.5 -21.5 -48 -48 -48h-288c-26.5 0 -48 21.5 -48 48l-23.2002 11.5996c-5.39941 2.7002 -8.7998 8.2002 -8.7998 14.3008v76.1992c0 6.10059 3.40039 11.6006 8.7998 14.3008l23.2002 11.5996v16
l-23.2002 11.5996c-5.39941 2.7002 -8.7998 8.2002 -8.7998 14.3008v76.1992c0 6.10059 3.40039 11.6006 8.7998 14.3008l23.2002 11.5996v16l-23.2002 11.5996c-5.39941 2.7002 -8.7998 8.2002 -8.7998 14.3008v76.1992c0 6.10059 3.40039 11.6006 8.7998 14.3008
l23.2002 11.5996c0 26.5 21.5 48 48 48h288c26.5 0 48 -21.5 48 -48l23.2002 -11.5996c5.39941 -2.7002 8.7998 -8.2002 8.7998 -14.3008v-76.1992c0 -6.10059 -3.40039 -11.6006 -8.7998 -14.3008zM352 16v352c0 8.7998 -7.2002 16 -16 16h-224
c-8.7998 0 -16 -7.2002 -16 -16v-352c0 -8.7998 7.2002 -16 16 -16h224c8.7998 0 16 7.2002 16 16z" />
    <glyph glyph-name="tablets" unicode="&#xf490;" 
d="M160 256c81.0996 0 147.5 -58.5 160 -134.7c0.799805 -4.7998 -3.2998 -9.2998 -8.2998 -9.2998h-303.3c-5 0 -9.10059 4.5 -8.30078 9.2998c12.4004 76.2002 78.8008 134.7 159.9 134.7zM311.6 80c5 0 9.10059 -4.5 8.30078 -9.2998
c-12.4004 -76.2002 -78.8008 -134.7 -159.9 -134.7s-147.5 58.5 -159.9 134.7c-0.799805 4.7998 3.30078 9.2998 8.30078 9.2998h303.199zM593.4 401.4c56.5 -56.5 61.3994 -144.2 15.8994 -206.9c-2.7998 -4 -8.7998 -4.2998 -12.2998 -0.799805l-211.3 211.399
c-3.5 3.40039 -3.2002 9.40039 0.799805 12.3008c62.7002 45.3994 150.4 40.5 206.9 -16zM363 382.3l211.3 -211.3c3.5 -3.40039 3.2002 -9.40039 -0.799805 -12.2998c-62.7002 -45.5 -150.4 -40.6006 -206.9 15.8994c-56.3994 56.5 -61.2998 144.2 -15.8994 206.9
c2.7998 4 8.7998 4.2998 12.2998 0.799805z" />
    <glyph glyph-name="thermometer" unicode="&#xf491;" horiz-adv-x="512" 
d="M476.8 427.6c49.4004 -40.6992 42.1006 -107.3 7.2002 -142.199l-254.2 -253.301h-99.8994l-89 -89c-9.30078 -9.39941 -24.5 -9.39941 -33.9004 0c-9.40039 9.30078 -9.40039 24.5 0 33.9004l89 89v100.9l45.2998 45.6992l50.1006 -50.1992
c3.09961 -3.10059 8.19922 -3.10059 11.2998 0l11.2998 11.2998c3.09961 3.09961 3.09961 8.2002 0 11.2998l-50.0996 50.2002l45.0996 45.3994l50.2998 -50.1992c3.10059 -3.10059 8.2002 -3.10059 11.2998 0l11.3008 11.2998c3.09961 3.09961 3.09961 8.2002 0 11.2998
l-50.3008 50.4004l45.1006 45.3994l50.3994 -50.5c3.10059 -3.09961 8.2002 -3.09961 11.3008 0l11.2998 11.2998c3.09961 3.10059 3.09961 8.2002 0 11.3008l-50.5 50.5l45.7002 46c36.3994 36.5 94.3994 40.8994 131.899 10.1992z" />
    <glyph glyph-name="vial" unicode="&#xf492;" horiz-adv-x="480" 
d="M477.7 261.9c3.09961 -3.10059 3.09961 -8.2002 0 -11.2002l-34 -33.9004c-3.10059 -3.09961 -8.2002 -3.09961 -11.2998 0l-11.2002 11.1006l-246.3 -245.7c-20.1006 -20.1006 -46.5 -30.1006 -72.9004 -30.1006c-28.9004 -0.0996094 -57.7998 11.9004 -78.4004 35.9004
c-35.6992 41.5 -29.3994 104.8 9.40039 143.5l242.4 241.9l-11.2002 11.0996c-3.10059 3.09961 -3.10059 8.2002 0 11.2998l34 33.9004c3.09961 3.09961 8.2002 3.09961 11.2998 0zM318 192l69.5 69.4004l-78.5 78.2998l-148 -147.7h157z" />
    <glyph glyph-name="vials" unicode="&#xf493;" 
d="M72 384c-4.40039 0 -8 3.59961 -8 8v48c0 4.40039 3.59961 8 8 8h208c4.40039 0 8 -3.59961 8 -8v-48c0 -4.40039 -3.59961 -8 -8 -8h-24v-240c0 -44.0996 -35.9004 -80 -80 -80s-80 35.9004 -80 80v240h-24zM144 384v-96h64v96h-64zM624 0c8.7998 0 16 -7.2002 16 -16
v-32c0 -8.7998 -7.2002 -16 -16 -16h-608c-8.7998 0 -16 7.2002 -16 16v32c0 8.7998 7.2002 16 16 16h608zM360 384c-4.40039 0 -8 3.59961 -8 8v48c0 4.40039 3.59961 8 8 8h208c4.40039 0 8 -3.59961 8 -8v-48c0 -4.40039 -3.59961 -8 -8 -8h-24v-240
c0 -44.0996 -35.9004 -80 -80 -80s-80 35.9004 -80 80v240h-24zM432 384v-96h64v96h-64z" />
    <glyph glyph-name="warehouse" unicode="&#xf494;" 
d="M504 96c4.40039 0 8 -3.59961 8 -8v-48c0 -4.40039 -3.59961 -8 -8 -8h-367.7c-4.39941 0 -8 3.59961 -8 8l0.100586 48c0 4.40039 3.59961 8 8 8h367.6zM504 0c4.40039 0 8 -3.59961 8 -8v-48c0 -4.40039 -3.59961 -8 -8 -8h-368c-4.40039 0 -8 3.59961 -8 8
l0.0996094 48c0 4.40039 3.60059 8 8 8h367.9zM504 192c4.40039 0 8 -3.59961 8 -8v-48c0 -4.40039 -3.59961 -8 -8 -8h-367.5c-4.40039 0 -8 3.59961 -8 8l0.0996094 48c0 4.40039 3.60059 8 8 8h367.4zM610.5 331c17.7998 -7.5 29.5 -24.9004 29.5 -44.2998v-342.7
c0 -4.40039 -3.59961 -8 -8 -8h-80c-4.40039 0 -8 3.59961 -8 8v248c0 17.5996 -14.5996 32 -32.5996 32h-382.801c-18 0 -32.5996 -14.4004 -32.5996 -32v-248c0 -4.40039 -3.59961 -8 -8 -8h-80c-4.40039 0 -8 3.59961 -8 8v342.7c0 19.3994 11.7002 36.7998 29.5 44.2998
l272 113.3c5.6748 2.35449 11.959 3.6543 18.4814 3.6543s12.7432 -1.2998 18.4189 -3.6543z" />
    <glyph glyph-name="warehouse-alt" unicode="&#xf495;" 
d="M610.5 331c17.7998 -7.5 29.5 -24.9004 29.5 -44.2998v-342.7c0 -4.40039 -3.59961 -8 -8 -8h-48c-4.40039 0 -8 3.59961 -8 8v296c0 8.7998 -7.2002 16 -16 16h-480c-8.7998 0 -16 -7.2002 -16 -16v-296c0 -4.40039 -3.59961 -8 -8 -8h-48c-4.40039 0 -8 3.59961 -8 8
v342.7c0 19.3994 11.7002 36.7998 29.5 44.2998l272 113.3c5.6748 2.35449 11.959 3.6543 18.4814 3.6543s12.7432 -1.2998 18.4189 -3.6543zM304 32c8.7998 0 16 -7.2002 16 -16v-64c0 -8.7998 -7.2002 -16 -16 -16h-160c-8.7998 0 -16 7.2002 -16 16v64
c0 8.7998 7.2002 16 16 16h160zM496 32c8.7998 0 16 -7.2002 16 -16v-64c0 -8.7998 -7.2002 -16 -16 -16h-128c-8.7998 0 -16 7.2002 -16 16v64c0 8.7998 7.2002 16 16 16h128zM304 160c8.7998 0 16 -7.2002 16 -16v-64c0 -8.7998 -7.2002 -16 -16 -16h-160
c-8.7998 0 -16 7.2002 -16 16v64c0 8.7998 7.2002 16 16 16h160z" />
    <glyph glyph-name="weight" unicode="&#xf496;" horiz-adv-x="512" 
d="M448 384c35.29 0 64 -28.71 64 -64v-320c0 -35.29 -28.71 -64 -64 -64h-384c-35.29 0 -64 28.71 -64 64v320c0 35.29 28.71 64 64 64h25.9805c-16.4209 -28.2803 -25.9805 -61.0098 -25.9805 -96c0 -105.87 86.1299 -192 192 -192s192 86.1299 192 192
c0 34.9902 -9.55957 67.7197 -25.9805 96h25.9805zM256 128c-88.3701 0 -160 71.6299 -160 160s71.6299 160 160 160s160 -71.6299 160 -160s-71.6299 -160 -160 -160zM255.7 279.94c-21.9404 -0.170898 -39.7002 -17.96 -39.7002 -39.9404c0 -22.0898 17.9102 -40 40 -40
s40 17.9102 40 40c0 10.5498 -4.26953 20 -10.9502 27.1602l33.6699 78.5498c3.4707 8.11035 -0.290039 17.5205 -8.41016 21c-8.08984 3.50977 -17.5293 -0.240234 -21.0293 -8.41016z" />
  </font>
</defs>
</svg>
